<?xml version="1.0" standalone="no"?>
<!DOCTYPE svg PUBLIC "-//W3C//DTD SVG 1.1//EN" "http://www.w3.org/Graphics/SVG/1.1/DTD/svg11.dtd" >
<svg xmlns="http://www.w3.org/2000/svg" xmlns:xlink="http://www.w3.org/1999/xlink" version="1.1">
<metadata>
Created by FontForge 20170731 at Wed Oct 12 15:49:31 2022
 By Aleksey,,,
Copyright (c) 2016 by Martin Va'cha. All rights reserved.
</metadata>
<defs>
<font id="Matter-Regular" horiz-adv-x="0" >
  <font-face 
    font-family="Matter"
    font-weight="400"
    font-stretch="normal"
    units-per-em="2048"
    panose-1="0 0 0 0 0 0 0 0 0 0"
    ascent="1638"
    descent="-410"
    x-height="1032"
    cap-height="1434"
    bbox="-307 -434 3123 2214"
    underline-thickness="102"
    underline-position="-358"
    unicode-range="U+000D-FB02"
  />
<missing-glyph horiz-adv-x="2215" 
d="M84 633q0 202 78 388.5t210 323.5t314.5 222t384.5 92v-2048q-202 7 -385 90.5t-315 220t-209.5 322.5t-77.5 389zM1145 -383v2034q83 -28 153 -172t111 -368.5t41 -477.5t-41 -477t-111 -367t-153 -172zM1300 -350q103 134 164.5 398.5t61.5 584.5t-61 584.5t-165 402.5
q146 -62 262 -207.5t181 -349.5t65 -430q0 -344 -142 -617t-366 -366zM1509 -307q172 150 273.5 400t101.5 540q0 289 -101.5 541t-273.5 401q281 -119 452 -376t171 -566q0 -310 -171 -566t-452 -374z" />
    <glyph glyph-name=".notdef" horiz-adv-x="2215" 
d="M84 633q0 202 78 388.5t210 323.5t314.5 222t384.5 92v-2048q-202 7 -385 90.5t-315 220t-209.5 322.5t-77.5 389zM1145 -383v2034q83 -28 153 -172t111 -368.5t41 -477.5t-41 -477t-111 -367t-153 -172zM1300 -350q103 134 164.5 398.5t61.5 584.5t-61 584.5t-165 402.5
q146 -62 262 -207.5t181 -349.5t65 -430q0 -344 -142 -617t-366 -366zM1509 -307q172 150 273.5 400t101.5 540q0 289 -101.5 541t-273.5 401q281 -119 452 -376t171 -566q0 -310 -171 -566t-452 -374z" />
    <glyph glyph-name=".null" 
 />
    <glyph glyph-name="nonmarkingreturn" horiz-adv-x="682" 
 />
    <glyph glyph-name="CR" unicode="&#xd;" horiz-adv-x="493" 
 />
    <glyph glyph-name="space" unicode=" " horiz-adv-x="493" 
 />
    <glyph glyph-name="exclam" unicode="!" horiz-adv-x="548" 
d="M211 406l-49 1028h227l-51 -1028h-127zM152 106q0 53 34.5 88t89.5 35q53 0 89 -35.5t36 -87.5q0 -53 -36 -87.5t-89 -34.5q-55 0 -89.5 34t-34.5 88z" />
    <glyph glyph-name="quotedbl" unicode="&#x22;" horiz-adv-x="718" 
d="M133 1044l-39 406h207l-41 -406h-127zM418 1450h207l-41 -406h-127z" />
    <glyph glyph-name="numbersign" unicode="#" horiz-adv-x="1390" 
d="M705 0l94 424h-332l-94 -424h-148l94 424h-258v139h289l68 307h-266v140h297l94 424h145l-94 -424h334l94 424h147l-94 -424h254v-140h-285l-67 -307h262v-139h-293l-94 -424h-147zM498 563h331l68 307h-332z" />
    <glyph glyph-name="dollar" unicode="$" horiz-adv-x="1200" 
d="M522 -205v195q-179 23 -305 140.5t-158 293.5l177 57q22 -150 125 -240.5t247 -90.5q148 0 236 64t88 171q0 61 -28 107.5t-75 76t-108 52.5t-129 42.5t-135.5 40.5t-128.5 51.5t-108 71t-75 104t-28 144.5q0 151 111 251.5t294 119.5v192h168v-194q164 -22 275.5 -115
t136.5 -233l-170 -66q-22 118 -110 186t-222 68q-138 0 -216.5 -56t-78.5 -153q0 -52 28 -90.5t75.5 -62.5t109 -43t129 -37.5t135.5 -39.5t129.5 -55t109 -79.5t75.5 -117t28 -163.5q0 -165 -117.5 -272t-316.5 -127v-193h-168z" />
    <glyph glyph-name="percent" unicode="%" horiz-adv-x="1669" 
d="M276 0l959 1434h156l-959 -1434h-156zM68 1090q0 155 93.5 257.5t241.5 102.5q147 0 240.5 -102.5t93.5 -257.5t-94 -258t-240 -103q-148 0 -241.5 103t-93.5 258zM215 1090q0 -105 51 -167.5t137 -62.5q85 0 135 62.5t50 167.5q0 104 -50 166.5t-135 62.5
q-86 0 -137 -62.5t-51 -166.5zM934 344q0 155 94 258t242 103q146 0 240 -103t94 -258t-93.5 -257.5t-240.5 -102.5q-148 0 -242 102.5t-94 257.5zM1081 344q0 -104 51.5 -166.5t137.5 -62.5q85 0 134.5 62t49.5 167t-49.5 167t-134.5 62q-86 0 -137.5 -62.5t-51.5 -166.5z
" />
    <glyph glyph-name="ampersand" unicode="&#x26;" horiz-adv-x="1351" 
d="M559 -16q-208 0 -333.5 113t-125.5 309q0 62 17 115t43.5 92t68 74.5t80.5 59.5t92 50q-85 103 -119 172.5t-34 144.5q0 151 96 243.5t254 92.5t253 -92.5t95 -243.5q0 -56 -15.5 -104.5t-40 -84t-63 -69t-74.5 -56t-85 -48.5l290 -334l191 215l133 -121l-201 -233
l244 -279h-223l-135 154q-184 -170 -408 -170zM285 406q0 -114 78.5 -185t201.5 -71q137 0 281 141l-334 381q-109 -55 -168 -115.5t-59 -150.5zM418 1114q0 -49 34 -103t109 -139q106 52 161.5 106t55.5 136q0 78 -51 127t-129 49t-129 -49t-51 -127z" />
    <glyph glyph-name="quotesingle" unicode="'" horiz-adv-x="393" 
d="M133 1044l-39 406h207l-41 -406h-127z" />
    <glyph glyph-name="parenleft" unicode="(" horiz-adv-x="557" 
d="M393 -352q-156 200 -239.5 450t-83.5 510t83.5 510.5t239.5 448.5l121 -90q-276 -408 -276 -869q0 -457 276 -868z" />
    <glyph glyph-name="parenright" unicode=")" horiz-adv-x="557" 
d="M43 -260q276 411 276 868q0 461 -276 869l121 90q156 -198 239.5 -448.5t83.5 -510.5t-83.5 -510t-239.5 -450z" />
    <glyph glyph-name="asterisk" unicode="*" horiz-adv-x="1003" 
d="M926 1069l-316 -94l203 -260l-111 -84l-200 272l-201 -272l-111 84l201 260l-313 94l41 135l315 -98l-2 328h139l-2 -328l316 98z" />
    <glyph glyph-name="plus" unicode="+" horiz-adv-x="1132" 
d="M1063 760v-154h-420v-420h-151v420h-422v154h419v420h152v-420h422z" />
    <glyph glyph-name="comma" unicode="," horiz-adv-x="526" 
d="M57 -217l119 430h234l-230 -430h-123z" />
    <glyph glyph-name="hyphen" unicode="-" horiz-adv-x="722" 
d="M59 514v154h605v-154h-605z" />
    <glyph glyph-name="period" unicode="." horiz-adv-x="530" 
d="M266 -16q-55 0 -90 34t-35 88q0 53 35 88t90 35q53 0 89 -35.5t36 -87.5q0 -53 -36 -87.5t-89 -34.5z" />
    <glyph glyph-name="slash" unicode="/" horiz-adv-x="858" 
d="M18 -2l644 1436h178l-645 -1436h-177z" />
    <glyph glyph-name="zero" unicode="0" horiz-adv-x="1263" 
d="M633 -16q-177 0 -301.5 92t-186 255.5t-61.5 385.5t61.5 385.5t186 255.5t301.5 92q262 0 405.5 -198t143.5 -535t-143.5 -535t-405.5 -198zM274 717q0 -263 92.5 -414t266.5 -151q171 0 263.5 151.5t92.5 413.5t-92.5 414.5t-263.5 152.5q-174 0 -266.5 -152t-92.5 -415
z" />
    <glyph glyph-name="one" unicode="1" horiz-adv-x="710" 
d="M385 1200q-132 -122 -340 -160v166q223 48 369 228h147v-1434h-176v1200z" />
    <glyph glyph-name="two" unicode="2" horiz-adv-x="1146" 
d="M61 0l-2 162l539 465q126 109 183 202.5t57 190.5q0 120 -74.5 192t-200.5 72q-150 0 -229 -96.5t-64 -257.5l-180 12q-17 225 115.5 366.5t357.5 141.5q212 0 339.5 -117.5t127.5 -312.5q0 -131 -76 -256t-241 -264l-389 -332h706v-168h-969z" />
    <glyph glyph-name="three" unicode="3" horiz-adv-x="1169" 
d="M563 -16q-212 0 -352 112.5t-160 300.5l176 27q15 -124 107 -198t229 -74q149 0 238.5 82t89.5 217q0 139 -84 216.5t-234 77.5q-87 0 -157 -45l-80 119l452 449h-696v166h916v-162l-408 -398q213 20 348 -98.5t135 -329.5q0 -208 -142.5 -335t-377.5 -127z" />
    <glyph glyph-name="four" unicode="4" horiz-adv-x="1253" 
d="M799 0v350h-756v168l727 916h215v-916h207v-168h-207v-350h-186zM244 518h555v703z" />
    <glyph glyph-name="five" unicode="5" horiz-adv-x="1171" 
d="M586 -16q-207 0 -347.5 107.5t-168.5 287.5l174 31q20 -119 111.5 -188.5t226.5 -69.5q142 0 227.5 88.5t85.5 234.5q0 149 -89.5 235.5t-244.5 86.5q-203 0 -317 -172l-135 28l112 781h764v-166h-627l-61 -430q56 53 137 85.5t158 32.5q223 0 359 -132t136 -349
q0 -223 -136.5 -357t-364.5 -134z" />
    <glyph glyph-name="six" unicode="6" horiz-adv-x="1224" 
d="M631 961q221 0 363.5 -137.5t142.5 -350.5q0 -215 -146.5 -352t-374.5 -137q-240 0 -386 179t-146 476q0 193 49.5 348t138 255.5t210 154t266.5 53.5q225 0 391 -131l-95 -145q-128 110 -299 110q-207 0 -344.5 -153t-142.5 -386q49 98 151 157t222 59zM289 479
q0 -143 92.5 -235t236.5 -92t236 92t94 235q0 141 -93 232.5t-237 91.5t-236.5 -91.5t-92.5 -232.5z" />
    <glyph glyph-name="seven" unicode="7" horiz-adv-x="1126" 
d="M231 0q23 198 117 424.5t223 430.5t297 413h-805v166h998v-166q-594 -765 -639 -1268h-191z" />
    <glyph glyph-name="eight" unicode="8" horiz-adv-x="1175" 
d="M592 -16q-230 0 -372 117t-142 311q0 126 73.5 224t196.5 136q-96 43 -153.5 124.5t-57.5 176.5q0 168 124.5 272.5t330.5 104.5q200 0 323 -104.5t123 -272.5q0 -95 -58 -177.5t-153 -123.5q123 -38 197 -136t74 -224q0 -193 -140.5 -310.5t-365.5 -117.5zM266 414
q0 -122 88.5 -195.5t235.5 -73.5q146 0 232.5 73.5t86.5 195.5t-86.5 195t-232.5 73q-148 0 -236 -73t-88 -195zM319 1067q1 -103 75.5 -164t197.5 -61q119 0 191 61t73 164q1 102 -71.5 163.5t-192.5 61.5q-126 0 -200 -61t-73 -164z" />
    <glyph glyph-name="nine" unicode="9" horiz-adv-x="1220" 
d="M590 473q-221 0 -363.5 137.5t-142.5 350.5q0 215 146 352t374 137q240 0 386.5 -179t146.5 -476q0 -193 -49.5 -348t-138 -255.5t-210 -154t-266.5 -53.5q-225 0 -391 131l94 145q128 -110 299 -110q207 0 345.5 152.5t142.5 385.5q-49 -98 -151 -156.5t-222 -58.5z
M272 954q0 -141 92.5 -232t237.5 -91t237.5 91t92.5 232q0 143 -93 235.5t-237 92.5t-236 -92.5t-94 -235.5z" />
    <glyph glyph-name="colon" unicode=":" horiz-adv-x="530" 
d="M266 803q-55 0 -90 34.5t-35 88.5q0 53 35 88t90 35q53 0 89 -35.5t36 -87.5q0 -53 -36 -88t-89 -35zM141 106q0 53 35 88t90 35q53 0 89 -35.5t36 -87.5q0 -53 -36 -87.5t-89 -34.5q-55 0 -90 34t-35 88z" />
    <glyph glyph-name="semicolon" unicode=";" horiz-adv-x="555" 
d="M53 -217l119 430h234l-230 -430h-123zM225 856q0 53 35 88t90 35q53 0 89 -35.5t36 -87.5q0 -53 -36 -88t-89 -35q-55 0 -90 34.5t-35 88.5z" />
    <glyph glyph-name="less" unicode="&#x3c;" horiz-adv-x="1099" 
d="M1030 113l-960 395v174l960 397v-178l-764 -305l764 -305v-178z" />
    <glyph glyph-name="equal" unicode="=" horiz-adv-x="1099" 
d="M70 410v151h960v-151h-960zM70 807v151h960v-151h-960z" />
    <glyph glyph-name="greater" unicode="&#x3e;" horiz-adv-x="1099" 
d="M70 113v178l764 305l-764 305v178l960 -397v-174z" />
    <glyph glyph-name="question" unicode="?" horiz-adv-x="1048" 
d="M379 399q-2 80 19.5 144t56.5 107t77.5 79t86 68.5t79 66.5t58 82t22.5 107q0 106 -68.5 171.5t-181.5 65.5q-128 0 -204.5 -74t-79.5 -200l-172 22q8 186 132.5 299t323.5 113q197 0 317 -109.5t120 -283.5q0 -79 -22.5 -141.5t-59 -103.5t-80.5 -75.5t-87.5 -66.5
t-79.5 -67t-58 -87t-21 -117h-178zM354 106q0 53 35 88t90 35q53 0 89 -35.5t36 -87.5q0 -53 -36 -87.5t-89 -34.5q-55 0 -90 34t-35 88z" />
    <glyph glyph-name="at" unicode="@" horiz-adv-x="1865" 
d="M1161 1001h148v-563q0 -57 34.5 -94t81.5 -37q90 0 145.5 97.5t55.5 259.5q0 173 -88 312.5t-243 217.5t-347 78q-150 0 -281.5 -52.5t-225 -144t-147.5 -220t-54 -275.5q0 -314 197.5 -509.5t516.5 -195.5q145 0 271 37.5t274 118.5l62 -146q-167 -82 -309 -117.5
t-300 -35.5q-253 0 -450 106.5t-305.5 299.5t-108.5 442q0 236 111.5 427t308 298.5t440.5 107.5q235 0 425.5 -96.5t298.5 -268t108 -384.5q0 -229 -99 -366.5t-260 -137.5q-78 0 -139 36t-90 99q-39 -68 -117 -106.5t-180 -38.5q-185 0 -295.5 117t-110.5 315
q0 186 113.5 307.5t290.5 124.5q77 1 150 -32.5t118 -88.5v108zM641 582q0 -138 73 -220.5t193 -80.5q121 2 194 83.5t73 217.5t-73.5 218.5t-193.5 82.5t-193 -82.5t-73 -218.5z" />
    <glyph glyph-name="A" unicode="A" horiz-adv-x="1343" 
d="M672 1188l-256 -658h510zM18 0l568 1434h170l569 -1434h-195l-141 365h-637l-141 -365h-193z" />
    <glyph glyph-name="B" unicode="B" horiz-adv-x="1255" 
d="M150 0v1434h520q204 0 321 -97.5t117 -271.5q0 -95 -55.5 -171.5t-132.5 -109.5q116 -41 183.5 -131.5t67.5 -234.5q0 -194 -125.5 -306t-345.5 -112h-550zM336 168h334q156 0 235.5 64.5t79.5 189.5q0 127 -79.5 192.5t-235.5 65.5h-334v-512zM336 844h326q128 0 195 54
t67 161t-67 161t-195 54h-326v-430z" />
    <glyph glyph-name="C" unicode="C" horiz-adv-x="1462" 
d="M780 -16q-109 0 -210.5 28.5t-190 88t-154 144.5t-103.5 206.5t-38 265.5t38 265.5t104 206.5t154.5 144.5t189.5 88t210 28.5q234 0 397 -122.5t207 -330.5l-184 -41q-34 156 -144.5 242t-277.5 86q-110 0 -201.5 -37.5t-158.5 -108t-104.5 -178.5t-37.5 -243
q0 -268 138.5 -416.5t363.5 -148.5q166 0 273.5 81.5t146.5 231.5l186 -39q-55 -205 -214.5 -323.5t-389.5 -118.5z" />
    <glyph glyph-name="D" unicode="D" horiz-adv-x="1378" 
d="M150 0v1434h425q151 0 281.5 -48t228 -137t153.5 -226t56 -306t-56 -306t-153.5 -226t-228 -137t-281.5 -48h-425zM334 168h235q107 0 200.5 31.5t169 95.5t119.5 172.5t44 249.5t-44 250t-119.5 173t-169 96t-200.5 32h-235v-1100z" />
    <glyph glyph-name="E" unicode="E" horiz-adv-x="1161" 
d="M150 0v1434h903v-166h-717v-422h582v-168h-582v-510h739v-168h-925z" />
    <glyph glyph-name="F" unicode="F" horiz-adv-x="1148" 
d="M150 0v1434h917v-166h-731v-439h598v-167h-598v-662h-186z" />
    <glyph glyph-name="G" unicode="G" horiz-adv-x="1519" 
d="M774 -16q-136 0 -258.5 47t-219.5 135.5t-154.5 231t-57.5 319.5q0 143 38 263.5t103.5 206t153.5 145.5t189 89t210 29q239 0 404.5 -123t208.5 -330l-185 -39q-31 152 -144.5 239t-283.5 87q-224 0 -363 -150t-139 -417t138.5 -416t361.5 -149q199 0 319.5 117.5
t125.5 308.5h-500v161h676v-739h-170v221q-49 -108 -174 -172.5t-279 -64.5z" />
    <glyph glyph-name="H" unicode="H" horiz-adv-x="1415" 
d="M1079 1434h187v-1434h-187v672h-743v-672h-186v1434h186v-594h743v594z" />
    <glyph glyph-name="I" unicode="I" horiz-adv-x="483" 
d="M150 0v1434h186v-1434h-186z" />
    <glyph glyph-name="J" unicode="J" horiz-adv-x="694" 
d="M51 170q50 -16 107 -16q107 0 155.5 57.5t48.5 194.5v1028h183v-1022q0 -212 -98.5 -318t-268.5 -106q-61 0 -127 16v166z" />
    <glyph glyph-name="K" unicode="K" horiz-adv-x="1288" 
d="M336 0h-186v1434h186v-650l627 650h247l-553 -570l613 -864h-226l-518 733l-190 -196v-537z" />
    <glyph glyph-name="L" unicode="L" horiz-adv-x="1075" 
d="M150 0v1434h186v-1266h711v-168h-897z" />
    <glyph glyph-name="M" unicode="M" horiz-adv-x="1714" 
d="M150 0v1434h225l483 -1164l483 1164h226v-1434h-185v1081l-446 -1081h-156l-448 1081v-1081h-182z" />
    <glyph glyph-name="N" unicode="N" horiz-adv-x="1411" 
d="M150 0v1434h206l723 -1141v1141h183v-1434h-207l-723 1137v-1137h-182z" />
    <glyph glyph-name="O" unicode="O" horiz-adv-x="1579" 
d="M791 -16q-202 0 -364 94t-252.5 261.5t-90.5 377.5t90.5 377.5t252.5 261.5t364 94q201 0 362 -94t251.5 -261.5t90.5 -377.5t-90.5 -377.5t-251.5 -261.5t-362 -94zM274 717q0 -246 145.5 -405.5t368.5 -159.5q226 0 371.5 159.5t145.5 405.5t-146 406.5t-371 160.5
q-223 0 -368.5 -160.5t-145.5 -406.5z" />
    <glyph glyph-name="P" unicode="P" horiz-adv-x="1204" 
d="M150 0v1434h544q209 0 334 -113.5t125 -302.5t-125 -302.5t-334 -113.5h-358v-602h-186zM336 770h352q128 0 200.5 65.5t72.5 182.5t-72.5 183.5t-200.5 66.5h-352v-498z" />
    <glyph glyph-name="Q" unicode="Q" horiz-adv-x="1581" 
d="M760 524l117 103l284 -314q144 160 144 404q0 246 -146 406.5t-371 160.5q-223 0 -368.5 -160.5t-145.5 -406.5t145.5 -405.5t368.5 -159.5q138 0 252 63zM84 717q0 210 90.5 377.5t252.5 261.5t364 94q201 0 362 -94t251.5 -261.5t90.5 -377.5q0 -161 -55.5 -300
t-155.5 -239l152 -168l-117 -100l-158 174q-161 -100 -370 -100q-202 0 -364 94t-252.5 261.5t-90.5 377.5z" />
    <glyph glyph-name="R" unicode="R" horiz-adv-x="1292" 
d="M150 0v1434h516q204 0 327 -109t123 -289q0 -131 -70.5 -228t-195.5 -140l414 -668h-220l-387 639h-321v-639h-186zM336 807h309q132 0 206.5 60.5t74.5 168.5q0 109 -74.5 170.5t-206.5 61.5h-309v-461z" />
    <glyph glyph-name="S" unicode="S" horiz-adv-x="1200" 
d="M604 -16q-207 0 -358.5 122t-186.5 318l177 57q22 -150 125 -240.5t247 -90.5q148 0 236 64t88 171q0 61 -28 107.5t-75 76t-108 52.5t-129 42.5t-135.5 40.5t-128.5 51.5t-108 71t-75 104t-28 144.5q0 167 135 271t348 104q197 0 335.5 -97.5t166.5 -256.5l-170 -66
q-22 118 -110 186t-222 68q-138 0 -216.5 -56t-78.5 -153q0 -52 28 -90.5t75.5 -62.5t109 -43t129 -37.5t135.5 -39.5t129.5 -55t109 -79.5t75.5 -117t28 -163.5q0 -183 -142.5 -293t-377.5 -110z" />
    <glyph glyph-name="T" unicode="T" horiz-adv-x="1173" 
d="M494 0v1268h-457v166h1098v-166h-455v-1268h-186z" />
    <glyph glyph-name="U" unicode="U" horiz-adv-x="1384" 
d="M692 -16q-247 0 -394.5 137.5t-147.5 374.5v938h182v-949q0 -155 98 -244t262 -89q166 0 265.5 89t99.5 244v949h180v-938q0 -237 -148.5 -374.5t-396.5 -137.5z" />
    <glyph glyph-name="V" unicode="V" horiz-adv-x="1302" 
d="M557 0l-539 1434h191l442 -1219l445 1219h190l-538 -1434h-191z" />
    <glyph glyph-name="W" unicode="W" horiz-adv-x="2027" 
d="M473 0l-436 1434h192l342 -1219l347 1219h194l344 -1219l342 1219h193l-435 -1434h-196l-344 1155l-348 -1155h-195z" />
    <glyph glyph-name="X" unicode="X" horiz-adv-x="1228" 
d="M29 0l489 772l-420 662h195l321 -508l322 508h197l-420 -664l487 -770h-194l-392 616l-391 -616h-194z" />
    <glyph glyph-name="Y" unicode="Y" horiz-adv-x="1214" 
d="M512 0v600l-504 834h211l387 -656l389 656h211l-506 -834v-600h-188z" />
    <glyph glyph-name="Z" unicode="Z" horiz-adv-x="1212" 
d="M51 0v162l864 1106h-819v166h1037v-162l-850 -1104h850v-168h-1082z" />
    <glyph glyph-name="bracketleft" unicode="[" horiz-adv-x="622" 
d="M150 -299v1872h409v-139h-256v-1594h256v-139h-409z" />
    <glyph glyph-name="backslash" unicode="\" horiz-adv-x="858" 
d="M840 -2h-176l-646 1436h179z" />
    <glyph glyph-name="bracketright" unicode="]" horiz-adv-x="622" 
d="M473 -299h-410v139h256v1594h-256v139h410v-1872z" />
    <glyph glyph-name="asciicircum" unicode="^" horiz-adv-x="1118" 
d="M78 866l411 568h140l411 -568h-184l-297 414l-297 -414h-184z" />
    <glyph glyph-name="underscore" unicode="_" horiz-adv-x="1024" 
d="M49 -154v154h926v-154h-926z" />
    <glyph glyph-name="grave" unicode="`" horiz-adv-x="571" 
d="M422 1147h-127l-240 303h219z" />
    <glyph glyph-name="a" unicode="a" horiz-adv-x="1091" 
d="M778 672q0 105 -69 168t-183 63q-107 0 -176.5 -60t-79.5 -163l-161 31q23 153 138 245.5t279 92.5q190 0 307 -104.5t117 -282.5v-662h-172v176q-44 -89 -137.5 -140.5t-206.5 -51.5q-155 0 -251.5 85.5t-96.5 219.5q0 149 121.5 232t370.5 108l200 22v21zM260 291
q0 -72 56 -118t145 -46q149 0 233 91.5t84 248.5v49l-200 -22q-156 -17 -237 -69t-81 -134z" />
    <glyph glyph-name="b" unicode="b" horiz-adv-x="1230" 
d="M651 -16q-112 0 -206 47t-130 119v-150h-174v1450h174v-565q50 73 143 118.5t195 45.5q155 0 269 -70.5t170.5 -190t56.5 -272.5t-56.5 -272t-170.5 -189.5t-271 -70.5zM299 516q0 -170 92 -273.5t244 -103.5t244 103.5t92 273.5t-92 273.5t-244 103.5t-244 -103.5
t-92 -273.5z" />
    <glyph glyph-name="c" unicode="c" horiz-adv-x="1124" 
d="M594 -16q-230 0 -371 146.5t-141 385.5t141 386t371 147q180 0 302.5 -91t150.5 -245l-173 -35q-17 95 -93 155t-183 60q-152 0 -243 -103t-91 -274t91 -274t243 -103q109 0 184 57.5t97 159.5l170 -34q-34 -159 -155 -248.5t-300 -89.5z" />
    <glyph glyph-name="d" unicode="d" horiz-adv-x="1230" 
d="M580 -16q-157 0 -271 70.5t-170.5 189.5t-56.5 272t56.5 272.5t170.5 190t269 70.5q102 0 194.5 -45.5t142.5 -118.5v565h175v-1450h-175v150q-36 -72 -129.5 -119t-205.5 -47zM260 516q0 -170 92 -273.5t244 -103.5t244 103.5t92 273.5t-92 273.5t-244 103.5
t-244 -103.5t-92 -273.5z" />
    <glyph glyph-name="e" unicode="e" horiz-adv-x="1157" 
d="M82 516q0 147 59 267.5t174.5 193t266.5 72.5q148 0 262 -66.5t172.5 -176t58.5 -243.5q0 -44 -4 -80h-815q9 -156 99.5 -251t230.5 -95q118 0 196 53t101 150l164 -39q-38 -150 -160 -233.5t-301 -83.5q-150 0 -266.5 72t-177 192.5t-60.5 267.5zM266 629h625
q-12 122 -94 198t-215 76q-122 0 -206 -72.5t-110 -201.5z" />
    <glyph glyph-name="f" unicode="f" horiz-adv-x="749" 
d="M244 0v879h-176v153h176v96q0 166 84.5 257.5t220.5 91.5q78 0 139 -17l-8 -155q-53 20 -109 20q-69 0 -111 -49.5t-42 -132.5v-111h264v-153h-264v-879h-174z" />
    <glyph glyph-name="g" unicode="g" horiz-adv-x="1216" 
d="M573 27q-231 0 -361 142.5t-130 367.5q0 226 129 369t358 143q102 0 195 -44t139 -112v139h172v-983q0 -195 -133.5 -316.5t-347.5 -121.5q-180 0 -307 87t-150 226l168 29q7 -86 88.5 -140.5t200.5 -54.5q137 0 223 76t86 197v143q-35 -66 -127 -106.5t-203 -40.5z
M260 537q0 -161 89.5 -258t240.5 -97q149 0 238.5 97t89.5 258q0 163 -89.5 259.5t-238.5 96.5q-151 0 -240.5 -96.5t-89.5 -259.5z" />
    <glyph glyph-name="h" unicode="h" horiz-adv-x="1196" 
d="M141 0v1450h174v-621q56 109 147 164.5t206 55.5q175 0 281 -101t106 -268v-680h-174v647q0 114 -67 179t-185 65q-143 0 -228.5 -121.5t-85.5 -327.5v-442h-174z" />
    <glyph glyph-name="i" unicode="i" horiz-adv-x="456" 
d="M141 0v1032h174v-1032h-174zM106 1348q0 53 34.5 87.5t86.5 34.5q54 0 89.5 -34.5t35.5 -87.5q0 -51 -35.5 -86t-89.5 -35q-52 0 -86.5 35t-34.5 86z" />
    <glyph glyph-name="j" unicode="j" horiz-adv-x="458" 
d="M14 -389l-43 2l-4 156q14 -2 29 -2q75 0 112 50t37 142v1073h174v-1095q0 -144 -84 -235t-221 -91zM111 1348q0 53 34 87.5t86 34.5q54 0 89.5 -34.5t35.5 -87.5q0 -51 -35.5 -86t-89.5 -35q-52 0 -86 35t-34 86z" />
    <glyph glyph-name="k" unicode="k" horiz-adv-x="1087" 
d="M317 0h-176v1450h176v-838l478 420h231l-442 -407l477 -625h-217l-389 508l-138 -125v-383z" />
    <glyph glyph-name="l" unicode="l" horiz-adv-x="456" 
d="M141 0v1450h174v-1450h-174z" />
    <glyph glyph-name="m" unicode="m" horiz-adv-x="1798" 
d="M141 0v1032h174v-194q40 97 119 154t193 57q128 0 218.5 -57.5t117.5 -160.5q43 96 131.5 157t201.5 61q165 0 263 -97t98 -260v-692h-174v657q0 108 -59.5 173t-166.5 65q-129 0 -200.5 -104t-71.5 -273v-518h-174v657q0 108 -59 173t-164 65q-129 0 -201 -104t-72 -273
v-518h-174z" />
    <glyph glyph-name="n" unicode="n" horiz-adv-x="1179" 
d="M141 0v1032h174v-194q56 96 148.5 153.5t206.5 57.5q162 0 265 -101t103 -264v-684h-174v651q0 106 -63 173t-170 67q-145 0 -230.5 -117.5t-85.5 -320.5v-453h-174z" />
    <glyph glyph-name="o" unicode="o" horiz-adv-x="1214" 
d="M606 -16q-230 0 -377 150t-147 382t147 382.5t377 150.5q229 0 378 -150.5t149 -382.5t-149 -382t-378 -150zM260 516q0 -167 95.5 -272t250.5 -105t250.5 105t95.5 272t-95.5 272t-250.5 105t-250.5 -105t-95.5 -272z" />
    <glyph glyph-name="p" unicode="p" horiz-adv-x="1230" 
d="M141 -373v1405h174v-149q42 72 136 119t204 47q231 0 362.5 -149.5t131.5 -383.5q0 -153 -57.5 -272.5t-171.5 -189.5t-269 -70q-98 0 -190.5 44t-145.5 115v-516h-174zM301 516q0 -170 91.5 -273.5t242.5 -103.5q153 0 245.5 103t92.5 274t-92.5 274t-245.5 103
q-151 0 -242.5 -103.5t-91.5 -273.5z" />
    <glyph glyph-name="q" unicode="q" horiz-adv-x="1230" 
d="M1090 -373h-175v516q-53 -71 -145 -115t-190 -44q-155 0 -269 70t-171.5 189.5t-57.5 272.5t56 272.5t169.5 190t267.5 70.5q110 0 204 -47t136 -119v149h175v-1405zM258 516q0 -171 92.5 -274t245.5 -103q151 0 242.5 103.5t91.5 273.5t-91.5 273.5t-242.5 103.5
q-153 0 -245.5 -103t-92.5 -274z" />
    <glyph glyph-name="r" unicode="r" horiz-adv-x="784" 
d="M745 862q-61 25 -133 25q-130 0 -213.5 -126.5t-83.5 -367.5v-393h-174v1032h174v-209q44 98 135.5 162t186.5 64q64 0 119 -19z" />
    <glyph glyph-name="s" unicode="s" horiz-adv-x="946" 
d="M487 -16q-90 0 -165.5 26t-127 70.5t-85.5 96t-52 108.5l150 65q71 -219 280 -219q93 0 151 46.5t58 111.5q0 53 -33 89t-85 55t-115.5 34t-127 35.5t-115.5 50t-85 86t-33 135.5q0 124 99 199.5t264 75.5q137 0 244 -70.5t139 -183.5l-146 -64q-21 78 -89 126t-152 48
q-89 0 -140 -34t-51 -95q0 -44 33 -73.5t85.5 -45.5t116.5 -30t127.5 -36.5t116 -55.5t85 -95t32.5 -149q0 -136 -105 -221.5t-274 -85.5z" />
    <glyph glyph-name="t" unicode="t" horiz-adv-x="751" 
d="M690 8q-68 -24 -162 -24q-139 0 -222 81t-83 244v570h-192v153h192v314h174v-314h277v-153h-277v-576q0 -79 41 -120.5t111 -41.5q74 0 129 27z" />
    <glyph glyph-name="u" unicode="u" horiz-adv-x="1179" 
d="M1038 1032v-1032h-174v195q-56 -96 -148 -153.5t-206 -57.5q-163 0 -266 100.5t-103 263.5v684h174v-651q0 -106 63.5 -173t170.5 -67q145 0 230 118t85 321v452h174z" />
    <glyph glyph-name="v" unicode="v" horiz-adv-x="987" 
d="M403 0l-376 1032h178l287 -829l288 829h181l-379 -1032h-179z" />
    <glyph glyph-name="w" unicode="w" horiz-adv-x="1564" 
d="M371 0l-316 1032h178l224 -788l241 788h168l242 -788l221 788h182l-317 -1032h-170l-242 784l-241 -784h-170z" />
    <glyph glyph-name="x" unicode="x" horiz-adv-x="991" 
d="M756 0l-260 387l-260 -387h-197l358 532l-336 500h195l240 -354l237 354h197l-336 -500l358 -532h-196z" />
    <glyph glyph-name="y" unicode="y" horiz-adv-x="1026" 
d="M821 1032h178l-540 -1405h-178l149 387l-403 1018h188l303 -790z" />
    <glyph glyph-name="z" unicode="z" horiz-adv-x="1003" 
d="M68 0v133l637 746h-601v153h822v-133l-629 -745h633v-154h-862z" />
    <glyph glyph-name="braceleft" unicode="{" horiz-adv-x="655" 
d="M502 -283q-101 0 -164.5 67.5t-63.5 176.5v426q0 100 -41.5 143t-134.5 45v150q93 2 134.5 44.5t41.5 141.5v428q0 108 63 175t165 67h104v-145h-57q-115 0 -115 -117v-449q0 -94 -38.5 -143.5t-110.5 -75.5q73 -30 111 -79t38 -144v-448q0 -115 115 -115h57v-148h-104z
" />
    <glyph glyph-name="bar" unicode="|" horiz-adv-x="485" 
d="M150 -102v1638h186v-1638h-186z" />
    <glyph glyph-name="braceright" unicode="}" horiz-adv-x="655" 
d="M154 -283h-105v148h57q115 0 115 115v448q0 95 38.5 144t111.5 79q-72 26 -111 75.5t-39 143.5v449q0 117 -115 117h-57v145h105q101 0 164 -66.5t63 -175.5v-428q0 -99 41.5 -141.5t134.5 -44.5v-150q-93 -2 -134.5 -45t-41.5 -143v-426q0 -109 -63 -176.5t-164 -67.5z
" />
    <glyph glyph-name="asciitilde" unicode="~" horiz-adv-x="1142" 
d="M764 522q-94 0 -205 72q-4 3 -24 17t-26 17.5t-22.5 14.5t-26 14.5t-24.5 9t-29.5 7.5t-29.5 2q-54 0 -91 -36t-46 -103l-146 22q7 123 85 197.5t198 74.5q98 0 207 -71q5 -3 24 -17t25.5 -18t23 -14t26 -14t24 -9.5t28.5 -7.5t29 -2q55 0 92.5 36t46.5 103l146 -22
q-8 -123 -86 -198t-199 -75z" />
    <glyph glyph-name="uni00A0" unicode="&#xa0;" horiz-adv-x="493" 
 />
    <glyph glyph-name="exclamdown" unicode="&#xa1;" horiz-adv-x="548" 
d="M211 610h127l51 -1028h-227zM152 909q0 54 34.5 88.5t89.5 34.5q53 0 89 -35t36 -88q0 -52 -36 -87.5t-89 -35.5q-55 0 -89.5 35t-34.5 88z" />
    <glyph glyph-name="cent" unicode="&#xa2;" horiz-adv-x="1124" 
d="M504 -236v226q-193 29 -307.5 170.5t-114.5 355.5t114.5 355.5t307.5 170.5v230h170v-228q150 -20 249 -107.5t124 -223.5l-173 -35q-17 95 -93 155t-183 60q-152 0 -243 -103t-91 -274t91 -274t243 -103q109 0 184 57.5t97 159.5l170 -34q-29 -140 -127.5 -227
t-247.5 -107v-226z" />
    <glyph glyph-name="sterling" unicode="&#xa3;" horiz-adv-x="1165" 
d="M133 162q93 108 136.5 194t43.5 189q0 42 -14 96h-225v160h164q-58 135 -58 231q0 192 120.5 305t313.5 113q163 0 278.5 -85t149.5 -224l-172 -56q-62 199 -256 199q-109 0 -176 -67t-67 -191q0 -39 9 -81t20 -70.5t30 -73.5h432v-160h-370q12 -47 12 -98
q0 -96 -50.5 -207t-119.5 -168h450q69 0 110.5 35.5t84.5 109.5l149 -86q-63 -113 -138 -170t-183 -57h-674v162z" />
    <glyph glyph-name="currency" unicode="&#xa4;" horiz-adv-x="1349" 
d="M1147 -76l-156 156q-135 -96 -315 -96q-184 0 -318 98l-155 -158l-121 119l160 160q-90 136 -90 313q0 175 90 311l-160 164l119 119l157 -160q135 99 318 99q178 0 315 -97l158 158l119 -119l-158 -162q92 -134 92 -313q0 -178 -92 -315l158 -158zM330 516
q0 -167 95.5 -272t250.5 -105t250.5 105t95.5 272t-95.5 272t-250.5 105t-250.5 -105t-95.5 -272z" />
    <glyph glyph-name="yen" unicode="&#xa5;" horiz-adv-x="1214" 
d="M131 594v145h297l-420 695h211l387 -656l389 656h211l-422 -695h301v-145h-385v-201h385v-143h-385v-250h-188v250h-381v143h381v201h-381z" />
    <glyph glyph-name="brokenbar" unicode="&#xa6;" horiz-adv-x="485" 
d="M150 821v715h186v-715h-186zM150 -102v714h186v-714h-186z" />
    <glyph glyph-name="section" unicode="&#xa7;" horiz-adv-x="1196" 
d="M612 -389q-193 0 -332.5 111.5t-173.5 289.5l152 51q23 -136 120.5 -218.5t233.5 -82.5q138 0 223 60t85 158q0 52 -26 91.5t-69.5 65t-100.5 45.5t-119.5 37.5t-125 37t-119.5 48.5t-100.5 66.5t-69.5 96.5t-26 134q0 140 147 229q-147 95 -147 271q0 152 125 250
t317 98q181 0 308.5 -90t150.5 -242l-150 -45q-17 104 -100 164.5t-209 60.5q-125 0 -200.5 -53.5t-75.5 -142.5q0 -52 26 -91t70 -63.5t101 -43.5t120 -36t126 -36t120 -48t101 -67.5t70 -99t26 -138.5q0 -139 -132 -233q132 -93 132 -266q0 -166 -132 -267.5t-346 -101.5z
M330 602q0 -47 22.5 -84t56.5 -59.5t87.5 -43.5t102 -33.5t114.5 -31.5t112 -37q95 66 95 166q0 46 -21.5 83t-53.5 60.5t-84 45t-98.5 34.5t-111.5 32.5t-109 35.5q-112 -58 -112 -168z" />
    <glyph glyph-name="dieresis" unicode="&#xa8;" horiz-adv-x="802" 
d="M217 1223q-50 0 -82.5 32.5t-32.5 81.5q0 50 33 83.5t82 33.5q51 0 85 -33.5t34 -83.5q0 -49 -34 -81.5t-85 -32.5zM465 1337q0 50 33 83.5t84 33.5t84.5 -33.5t33.5 -83.5q0 -49 -33.5 -81.5t-84.5 -32.5t-84 32t-33 82z" />
    <glyph glyph-name="copyright" unicode="&#xa9;" horiz-adv-x="1636" 
d="M829 311q-177 0 -285 112.5t-108 297.5q0 184 109 298t284 114q134 0 228 -73t117 -196l-123 -26q-15 86 -74 134t-148 48q-123 0 -194.5 -80.5t-71.5 -218.5t71 -217.5t195 -79.5q88 0 144.5 44.5t75.5 129.5l125 -25q-29 -123 -121.5 -192.5t-223.5 -69.5zM84 717
q0 156 55.5 292t152.5 233t233 152.5t292 55.5t292.5 -55.5t233.5 -152.5t153 -233t56 -292t-56 -292t-153 -233t-233.5 -152.5t-292.5 -55.5t-292 55.5t-233 152.5t-152.5 233t-55.5 292zM201 717q0 -176 79.5 -318.5t221 -223.5t315.5 -81q175 0 316.5 81t222 223.5
t80.5 318.5q0 131 -47.5 247t-129 198t-196.5 129.5t-246 47.5q-174 0 -315.5 -81t-221 -223t-79.5 -318z" />
    <glyph glyph-name="ordfeminine" unicode="&#xaa;" horiz-adv-x="692" 
d="M485 1208q0 66 -41.5 105t-109.5 39q-64 0 -106.5 -37t-49.5 -101l-110 21q15 96 89 155.5t177 59.5q123 0 197.5 -67t74.5 -181v-416h-121v103q-29 -51 -87 -82t-126 -31q-96 0 -157.5 54.5t-61.5 138.5q0 95 76 148.5t231 68.5l125 12v10zM174 971q0 -43 34 -70t87 -27
q87 0 137.5 52.5t52.5 142.5v35l-127 -12q-91 -10 -137.5 -41.5t-46.5 -79.5z" />
    <glyph glyph-name="guillemotleft" unicode="&#xab;" horiz-adv-x="1140" 
d="M588 147l-527 416v109l527 413v-180l-369 -289l369 -286v-183zM541 563v109l526 413v-180l-369 -289l369 -286v-183z" />
    <glyph glyph-name="logicalnot" unicode="&#xac;" horiz-adv-x="1185" 
d="M895 297v360h-793v156h967v-516h-174z" />
    <glyph glyph-name="uni00AD" unicode="&#xad;" horiz-adv-x="722" 
d="M59 514v154h605v-154h-605z" />
    <glyph glyph-name="registered" unicode="&#xae;" horiz-adv-x="1636" 
d="M1176 336h-136l-219 348h-159v-348h-119v801h288q115 0 185.5 -62.5t70.5 -165.5q0 -71 -37 -124t-104 -78zM84 717q0 156 55.5 292t152.5 233t233 152.5t292 55.5t292.5 -55.5t233.5 -152.5t153 -233t56 -292t-56 -292t-153 -233t-233.5 -152.5t-292.5 -55.5t-292 55.5
t-233 152.5t-152.5 233t-55.5 292zM201 717q0 -176 79.5 -318.5t221 -223.5t315.5 -81q175 0 316.5 81t222 223.5t80.5 318.5q0 131 -47.5 247t-129 198t-196.5 129.5t-246 47.5q-174 0 -315.5 -81t-221 -223t-79.5 -318zM662 795h159q70 0 108 30t38 84q0 57 -37.5 87
t-108.5 30h-159v-231z" />
    <glyph glyph-name="macron" unicode="&#xaf;" horiz-adv-x="751" 
d="M102 1210v144h547v-144h-547z" />
    <glyph glyph-name="degree" unicode="&#xb0;" horiz-adv-x="698" 
d="M346 932q-109 2 -185.5 78.5t-76.5 183.5q0 112 76.5 188t185.5 76q113 0 190.5 -76t77.5 -188q0 -108 -78 -184.5t-190 -77.5zM215 1194q0 -59 37 -97t94 -38q58 0 96.5 38.5t38.5 96.5t-38.5 96.5t-96.5 38.5q-57 0 -94 -38t-37 -97z" />
    <glyph glyph-name="plusminus" unicode="&#xb1;" horiz-adv-x="1132" 
d="M1063 823v-153h-420v-420h-151v420h-422v153h419v420h152v-420h422zM86 0v152h961v-152h-961z" />
    <glyph glyph-name="uni00B2" unicode="&#xb2;" horiz-adv-x="677" 
d="M63 768l-2 115l258 219q78 64 114 115.5t36 103.5q0 56 -34.5 88.5t-94.5 32.5q-70 0 -107.5 -48t-29.5 -128l-133 10q-10 125 67.5 207t202.5 82q122 0 197 -68t75 -176q0 -75 -46 -146.5t-150 -154.5l-160 -129h356v-123h-549z" />
    <glyph glyph-name="uni00B3" unicode="&#xb3;" horiz-adv-x="684" 
d="M340 760q-120 0 -200.5 62.5t-92.5 166.5l131 21q9 -57 54 -92t108 -35q69 0 111.5 38t42.5 101q0 64 -40.5 100.5t-109.5 36.5q-48 0 -86 -24l-59 92l221 209h-350l2 120h516v-120l-205 -185q114 6 184 -57t70 -176q0 -117 -81.5 -187.5t-215.5 -70.5z" />
    <glyph glyph-name="acute" unicode="&#xb4;" horiz-adv-x="571" 
d="M102 1147l148 303h219l-240 -303h-127z" />
    <glyph glyph-name="uni00B5" unicode="&#xb5;" horiz-adv-x="1165" 
d="M131 -389v1421h174v-651q0 -106 63.5 -173t170.5 -67q145 0 230 118t85 321v452h174v-1032h-174v195q-51 -97 -139 -154t-197 -57q-119 0 -213 94v-467h-174z" />
    <glyph glyph-name="paragraph" unicode="&#xb6;" horiz-adv-x="1398" 
d="M498 664q-170 0 -289 112.5t-119 272.5t119 272.5t289 112.5h800v-162h-137v-1645h-170v1645h-323v-1645h-170v1037z" />
    <glyph glyph-name="periodcentered" unicode="&#xb7;" horiz-adv-x="522" 
d="M268 600q-55 0 -90 34.5t-35 88.5q0 53 35 88t90 35q53 0 89 -35.5t36 -87.5q0 -53 -36 -88t-89 -35z" />
    <glyph glyph-name="cedilla" unicode="&#xb8;" horiz-adv-x="571" 
d="M469 2l-147 -303h-220l281 360z" />
    <glyph glyph-name="uni00B9" unicode="&#xb9;" horiz-adv-x="434" 
d="M223 1409q-96 -63 -166 -80v125q86 25 191 102h106v-788h-131v641z" />
    <glyph glyph-name="ordmasculine" unicode="&#xba;" horiz-adv-x="776" 
d="M389 776q-147 0 -241.5 94.5t-94.5 243.5q0 147 94.5 241.5t241.5 94.5q145 0 239.5 -94.5t94.5 -241.5q0 -149 -94.5 -243.5t-239.5 -94.5zM178 1114q0 -102 58 -165.5t153 -63.5q92 0 149.5 64t57.5 165q0 100 -57.5 164.5t-149.5 64.5q-94 0 -152.5 -64t-58.5 -165z
" />
    <glyph glyph-name="guillemotright" unicode="&#xbb;" horiz-adv-x="1175" 
d="M72 147v183l368 286l-368 289v180l526 -413v-109zM588 147v183l368 286l-368 289v180l526 -413v-109z" />
    <glyph glyph-name="onequarter" unicode="&#xbc;" horiz-adv-x="1566" 
d="M1270 0v170h-406v123l393 495h154v-495h109v-123h-109v-170h-141zM57 1206v125q83 25 191 103h106v-789h-131v641q-96 -63 -166 -80zM190 0l959 1434h156l-959 -1434h-156zM1010 293h260v330z" />
    <glyph glyph-name="onehalf" unicode="&#xbd;" horiz-adv-x="1622" 
d="M223 1286q-96 -63 -166 -80v125q83 25 191 103h106v-789h-131v641zM178 0l959 1434h155l-958 -1434h-156zM1006 115l258 219q78 64 113.5 115.5t35.5 103.5q0 56 -34.5 88.5t-94.5 32.5q-70 0 -107.5 -48t-29.5 -128l-133 10q-10 125 67.5 207t202.5 82q122 0 197 -68
t75 -176q0 -75 -46 -146.5t-150 -154.5l-160 -129h356v-123h-548z" />
    <glyph glyph-name="threequarters" unicode="&#xbe;" horiz-adv-x="1705" 
d="M340 637q-120 0 -200.5 62.5t-92.5 166.5l131 21q9 -57 54 -92t108 -35q69 0 111.5 38t42.5 101q0 64 -40.5 100.5t-109.5 36.5q-48 0 -86 -24l-59 92l221 209h-350l2 121h516v-121l-205 -185q114 6 184 -57t70 -176q0 -117 -81.5 -187.5t-215.5 -70.5zM307 0l959 1434
h155l-958 -1434h-156zM1004 170v123l393 495h153v-495h109v-123h-109v-170h-141v170h-405zM1149 293h260v330z" />
    <glyph glyph-name="questiondown" unicode="&#xbf;" horiz-adv-x="909" 
d="M590 616q2 -80 -19.5 -144t-56.5 -107t-78 -79t-86 -68t-79 -66.5t-58.5 -82t-22.5 -106.5q0 -106 68.5 -171.5t181.5 -65.5q128 0 205 74t80 200l172 -23q-8 -186 -133 -298.5t-324 -112.5q-197 0 -316.5 109.5t-119.5 283.5q0 79 22.5 141.5t59 103t80.5 75t87.5 66.5
t79.5 67.5t58 87t21 116.5h178zM365 909q0 54 35.5 88.5t88.5 34.5q55 0 90 -34.5t35 -88.5q0 -53 -35 -88t-90 -35q-53 0 -88.5 35.5t-35.5 87.5z" />
    <glyph glyph-name="Agrave" unicode="&#xc0;" horiz-adv-x="1343" 
d="M672 1188l-256 -658h510zM18 0l568 1434h170l569 -1434h-195l-141 365h-637l-141 -365h-193zM371 1851h219l147 -303h-127z" />
    <glyph glyph-name="Aacute" unicode="&#xc1;" horiz-adv-x="1343" 
d="M672 1188l-256 -658h510zM18 0l568 1434h170l569 -1434h-195l-141 365h-637l-141 -365h-193zM588 1548l147 303h219l-239 -303h-127z" />
    <glyph glyph-name="Acircumflex" unicode="&#xc2;" horiz-adv-x="1343" 
d="M672 1188l-256 -658h510zM18 0l568 1434h170l569 -1434h-195l-141 365h-637l-141 -365h-193zM362 1548l238 303h141l238 -303h-139l-168 183l-170 -183h-140z" />
    <glyph glyph-name="Atilde" unicode="&#xc3;" horiz-adv-x="1343" 
d="M672 1188l-256 -658h510zM18 0l568 1434h170l569 -1434h-195l-141 365h-637l-141 -365h-193zM319 1620q1 95 62.5 154t157.5 59q78 0 153 -55q3 -2 14 -9.5t14 -9.5t12.5 -8t14 -8.5t13 -6.5t14.5 -6t14 -4t15.5 -3t15.5 -1q83 0 92 103l127 -23q-5 -96 -64.5 -154.5
t-154.5 -58.5q-71 0 -153 53q-6 4 -21.5 15t-21.5 15t-18.5 11.5t-21 10.5t-20.5 5.5t-24 2.5q-39 0 -65 -26.5t-30 -76.5z" />
    <glyph glyph-name="Adieresis" unicode="&#xc4;" horiz-adv-x="1343" 
d="M672 1188l-256 -658h510zM18 0l568 1434h170l569 -1434h-195l-141 365h-637l-141 -365h-193zM373 1739q0 50 32.5 83t81.5 33q51 0 85 -33t34 -83q0 -49 -34 -82t-85 -33q-49 0 -81.5 32.5t-32.5 82.5zM735 1739q0 50 33 83t84 33t85 -33t34 -83q0 -49 -34 -82t-85 -33
t-84 32.5t-33 82.5z" />
    <glyph glyph-name="Aring" unicode="&#xc5;" horiz-adv-x="1343" 
d="M672 1188l-256 -658h510zM18 0l568 1434h170l569 -1434h-195l-141 365h-637l-141 -365h-193zM449 1724q0 89 64 149t159 60q96 0 159.5 -59.5t63.5 -149.5q0 -91 -63 -151t-160 -60q-95 0 -159 60t-64 151zM563 1724q0 -47 31.5 -76.5t77.5 -29.5q48 0 79 29.5t31 76.5
q0 46 -31.5 75.5t-78.5 29.5q-46 0 -77.5 -30t-31.5 -75z" />
    <glyph glyph-name="AE" unicode="&#xc6;" horiz-adv-x="1953" 
d="M219 0h-205l826 1434h1005v-166h-717v-422h582v-168h-582v-510h740v-168h-926v381h-508zM528 549h414v735z" />
    <glyph glyph-name="Ccedilla" unicode="&#xc7;" horiz-adv-x="1462" 
d="M84 717q0 144 38 265.5t104 206.5t154.5 144.5t189.5 88t210 28.5q234 0 397 -122.5t207 -330.5l-184 -41q-34 156 -144.5 242t-277.5 86q-110 0 -201.5 -37.5t-158.5 -108t-104.5 -178.5t-37.5 -243q0 -268 138.5 -416.5t363.5 -148.5q166 0 273.5 81.5t146.5 231.5
l186 -39q-53 -198 -204 -315.5t-369 -126.5l-139 -285h-219l227 291q-122 16 -228 69t-189 141.5t-131 221.5t-48 295z" />
    <glyph glyph-name="Egrave" unicode="&#xc8;" horiz-adv-x="1161" 
d="M150 0v1434h903v-166h-717v-422h582v-168h-582v-510h739v-168h-925zM317 1851h220l147 -303h-127z" />
    <glyph glyph-name="Eacute" unicode="&#xc9;" horiz-adv-x="1161" 
d="M150 0v1434h903v-166h-717v-422h582v-168h-582v-510h739v-168h-925zM535 1548l147 303h219l-239 -303h-127z" />
    <glyph glyph-name="Ecircumflex" unicode="&#xca;" horiz-adv-x="1161" 
d="M150 0v1434h903v-166h-717v-422h582v-168h-582v-510h739v-168h-925zM309 1548l238 303h141l238 -303h-140l-168 183l-169 -183h-140z" />
    <glyph glyph-name="Edieresis" unicode="&#xcb;" horiz-adv-x="1161" 
d="M150 0v1434h903v-166h-717v-422h582v-168h-582v-510h739v-168h-925zM319 1739q0 50 33 83t82 33q51 0 85 -33t34 -83q0 -49 -34 -82t-85 -33q-50 0 -82.5 33t-32.5 82zM682 1739q0 50 33 83t84 33t85 -33t34 -83q0 -49 -34 -82t-85 -33t-84 32.5t-33 82.5z" />
    <glyph glyph-name="Igrave" unicode="&#xcc;" horiz-adv-x="483" 
d="M150 0v1434h186v-1434h-186zM-59 1851h219l147 -303h-127z" />
    <glyph glyph-name="Iacute" unicode="&#xcd;" horiz-adv-x="483" 
d="M150 0v1434h186v-1434h-186zM156 1548l147 303h219l-239 -303h-127z" />
    <glyph glyph-name="Icircumflex" unicode="&#xce;" horiz-adv-x="483" 
d="M150 0v1434h186v-1434h-186zM-70 1548l238 303h141l238 -303h-139l-168 183l-170 -183h-140z" />
    <glyph glyph-name="Idieresis" unicode="&#xcf;" horiz-adv-x="483" 
d="M150 0v1434h186v-1434h-186zM-59 1739q0 50 32.5 83t81.5 33q51 0 85 -33t34 -83q0 -49 -34 -82t-85 -33q-49 0 -81.5 32.5t-32.5 82.5zM303 1739q0 50 33 83t84 33t85 -33t34 -83q0 -49 -34 -82t-85 -33t-84 32.5t-33 82.5z" />
    <glyph glyph-name="Eth" unicode="&#xd0;" horiz-adv-x="1378" 
d="M150 0v651h-125v131h125v652h425q151 0 281.5 -48t228 -137t153.5 -226t56 -306t-56 -306t-153.5 -226t-228 -137t-281.5 -48h-425zM334 168h235q107 0 200.5 31.5t169 95.5t119.5 172.5t44 249.5t-44 250t-119.5 173t-169 96t-200.5 32h-235v-486h309v-131h-309v-483z
" />
    <glyph glyph-name="Ntilde" unicode="&#xd1;" horiz-adv-x="1411" 
d="M150 0v1434h206l723 -1141v1141h183v-1434h-207l-723 1137v-1137h-182zM354 1620q1 95 62 154t157 59q79 0 154 -55q3 -2 14 -9.5t14 -9.5t12.5 -8t14 -8.5t13 -6.5t14.5 -6t14 -4t15.5 -3t15.5 -1q83 0 92 103l127 -23q-5 -96 -64.5 -154.5t-154.5 -58.5q-72 0 -154 53
q-6 4 -21.5 15t-21.5 15t-18.5 11.5t-21 10.5t-20.5 5.5t-24 2.5q-39 0 -64.5 -26.5t-29.5 -76.5z" />
    <glyph glyph-name="Ograve" unicode="&#xd2;" horiz-adv-x="1579" 
d="M791 -16q-202 0 -364 94t-252.5 261.5t-90.5 377.5t90.5 377.5t252.5 261.5t364 94q201 0 362 -94t251.5 -261.5t90.5 -377.5t-90.5 -377.5t-251.5 -261.5t-362 -94zM274 717q0 -246 145.5 -405.5t368.5 -159.5q226 0 371.5 159.5t145.5 405.5t-146 406.5t-371 160.5
q-223 0 -368.5 -160.5t-145.5 -406.5zM489 1851h220l147 -303h-127z" />
    <glyph glyph-name="Oacute" unicode="&#xd3;" horiz-adv-x="1579" 
d="M791 -16q-202 0 -364 94t-252.5 261.5t-90.5 377.5t90.5 377.5t252.5 261.5t364 94q201 0 362 -94t251.5 -261.5t90.5 -377.5t-90.5 -377.5t-251.5 -261.5t-362 -94zM274 717q0 -246 145.5 -405.5t368.5 -159.5q226 0 371.5 159.5t145.5 405.5t-146 406.5t-371 160.5
q-223 0 -368.5 -160.5t-145.5 -406.5zM705 1548l147 303h219l-240 -303h-126z" />
    <glyph glyph-name="Ocircumflex" unicode="&#xd4;" horiz-adv-x="1579" 
d="M791 -16q-202 0 -364 94t-252.5 261.5t-90.5 377.5t90.5 377.5t252.5 261.5t364 94q201 0 362 -94t251.5 -261.5t90.5 -377.5t-90.5 -377.5t-251.5 -261.5t-362 -94zM274 717q0 -246 145.5 -405.5t368.5 -159.5q226 0 371.5 159.5t145.5 405.5t-146 406.5t-371 160.5
q-223 0 -368.5 -160.5t-145.5 -406.5zM479 1548l238 303h141l238 -303h-140l-168 183l-170 -183h-139z" />
    <glyph glyph-name="Otilde" unicode="&#xd5;" horiz-adv-x="1579" 
d="M791 -16q-202 0 -364 94t-252.5 261.5t-90.5 377.5t90.5 377.5t252.5 261.5t364 94q201 0 362 -94t251.5 -261.5t90.5 -377.5t-90.5 -377.5t-251.5 -261.5t-362 -94zM274 717q0 -246 145.5 -405.5t368.5 -159.5q226 0 371.5 159.5t145.5 405.5t-146 406.5t-371 160.5
q-223 0 -368.5 -160.5t-145.5 -406.5zM436 1620q1 95 62 154t157 59q79 0 154 -55q3 -2 14 -9.5t14 -9.5t12.5 -8t14 -8.5t13 -6.5t14.5 -6t14 -4t15.5 -3t15.5 -1q83 0 92 103l127 -23q-5 -96 -64.5 -154.5t-154.5 -58.5q-72 0 -154 53q-6 4 -21.5 15t-21.5 15t-18.5 11.5
t-21 10.5t-20.5 5.5t-24 2.5q-39 0 -64.5 -26.5t-29.5 -76.5z" />
    <glyph glyph-name="Odieresis" unicode="&#xd6;" horiz-adv-x="1579" 
d="M791 -16q-202 0 -364 94t-252.5 261.5t-90.5 377.5t90.5 377.5t252.5 261.5t364 94q201 0 362 -94t251.5 -261.5t90.5 -377.5t-90.5 -377.5t-251.5 -261.5t-362 -94zM274 717q0 -246 145.5 -405.5t368.5 -159.5q226 0 371.5 159.5t145.5 405.5t-146 406.5t-371 160.5
q-223 0 -368.5 -160.5t-145.5 -406.5zM489 1739q0 50 33 83t82 33q51 0 85 -33t34 -83q0 -49 -34 -82t-85 -33q-50 0 -82.5 33t-32.5 82zM852 1739q0 50 33 83t84 33t84.5 -33t33.5 -83t-33.5 -82.5t-84.5 -32.5t-84 32.5t-33 82.5z" />
    <glyph glyph-name="multiply" unicode="&#xd7;" horiz-adv-x="1101" 
d="M895 225l115 115l-344 344l344 342l-115 115l-344 -344l-344 344l-115 -115l344 -342l-344 -344l115 -115l459 459l-115 113l-115 -113z" />
    <glyph glyph-name="Oslash" unicode="&#xd8;" horiz-adv-x="1579" 
d="M791 -16q-231 0 -408 122l-121 -141l-125 117l119 139q-172 200 -172 496q0 210 90.5 377.5t252.5 261.5t364 94q227 0 405 -123l121 141l127 -116l-119 -142q170 -204 170 -493q0 -210 -90.5 -377.5t-251.5 -261.5t-362 -94zM274 717q0 -205 103 -352l704 827
q-125 92 -293 92q-223 0 -368.5 -160.5t-145.5 -406.5zM498 242q129 -90 290 -90q226 0 371.5 159.5t145.5 405.5q0 202 -103 352z" />
    <glyph glyph-name="Ugrave" unicode="&#xd9;" horiz-adv-x="1384" 
d="M692 -16q-247 0 -394.5 137.5t-147.5 374.5v938h182v-949q0 -155 98 -244t262 -89q166 0 265.5 89t99.5 244v949h180v-938q0 -237 -148.5 -374.5t-396.5 -137.5zM391 1851h219l148 -303h-127z" />
    <glyph glyph-name="Uacute" unicode="&#xda;" horiz-adv-x="1384" 
d="M692 -16q-247 0 -394.5 137.5t-147.5 374.5v938h182v-949q0 -155 98 -244t262 -89q166 0 265.5 89t99.5 244v949h180v-938q0 -237 -148.5 -374.5t-396.5 -137.5zM608 1548l148 303h219l-240 -303h-127z" />
    <glyph glyph-name="Ucircumflex" unicode="&#xdb;" horiz-adv-x="1384" 
d="M692 -16q-247 0 -394.5 137.5t-147.5 374.5v938h182v-949q0 -155 98 -244t262 -89q166 0 265.5 89t99.5 244v949h180v-938q0 -237 -148.5 -374.5t-396.5 -137.5zM383 1548l238 303h141l237 -303h-139l-168 183l-170 -183h-139z" />
    <glyph glyph-name="Udieresis" unicode="&#xdc;" horiz-adv-x="1384" 
d="M692 -16q-247 0 -394.5 137.5t-147.5 374.5v938h182v-949q0 -155 98 -244t262 -89q166 0 265.5 89t99.5 244v949h180v-938q0 -237 -148.5 -374.5t-396.5 -137.5zM393 1739q0 50 33 83t82 33q51 0 85 -33t34 -83q0 -49 -34 -82t-85 -33q-50 0 -82.5 33t-32.5 82zM756 1739
q0 50 32.5 83t83.5 33t85 -33t34 -83q0 -49 -34 -82t-85 -33t-83.5 32.5t-32.5 82.5z" />
    <glyph glyph-name="Yacute" unicode="&#xdd;" horiz-adv-x="1214" 
d="M512 0v600l-504 834h211l387 -656l389 656h211l-506 -834v-600h-188zM522 1548l148 303h219l-240 -303h-127z" />
    <glyph glyph-name="Thorn" unicode="&#xde;" horiz-adv-x="1204" 
d="M150 0v1434h186v-312h358q214 0 336.5 -108t122.5 -297t-122.5 -297.5t-336.5 -108.5h-358v-311h-186zM336 475h356q140 0 205.5 66t65.5 176t-65.5 175.5t-205.5 65.5h-356v-483z" />
    <glyph glyph-name="germandbls" unicode="&#xdf;" horiz-adv-x="1208" 
d="M662 -16q-44 0 -105 5t-68 9v162q96 -17 156 -17q150 1 229.5 74.5t79.5 202.5q0 139 -98.5 208.5t-263.5 69.5h-103v160h111q123 0 191.5 59.5t68.5 163.5q0 99 -68.5 159t-181.5 60q-114 0 -181 -75.5t-67 -220.5v-1004h-186v698h-119v160h119v148q0 107 35 193t95 140
t137.5 82.5t166.5 28.5q193 0 308.5 -100t115.5 -256q0 -111 -56.5 -194t-143.5 -103q60 -16 112 -46t96 -75t69.5 -109.5t25.5 -140.5q0 -214 -129 -328t-346 -114z" />
    <glyph glyph-name="agrave" unicode="&#xe0;" horiz-adv-x="1091" 
d="M778 672q0 105 -69 168t-183 63q-107 0 -176.5 -60t-79.5 -163l-161 31q23 153 138 245.5t279 92.5q190 0 307 -104.5t117 -282.5v-662h-172v176q-44 -89 -137.5 -140.5t-206.5 -51.5q-155 0 -251.5 85.5t-96.5 219.5q0 149 121.5 232t370.5 108l200 22v21zM229 1450h220
l147 -303h-127zM260 291q0 -72 56 -118t145 -46q149 0 233 91.5t84 248.5v49l-200 -22q-156 -17 -237 -69t-81 -134z" />
    <glyph glyph-name="aacute" unicode="&#xe1;" horiz-adv-x="1091" 
d="M778 672q0 105 -69 168t-183 63q-107 0 -176.5 -60t-79.5 -163l-161 31q23 153 138 245.5t279 92.5q190 0 307 -104.5t117 -282.5v-662h-172v176q-44 -89 -137.5 -140.5t-206.5 -51.5q-155 0 -251.5 85.5t-96.5 219.5q0 149 121.5 232t370.5 108l200 22v21zM260 291
q0 -72 56 -118t145 -46q149 0 233 91.5t84 248.5v49l-200 -22q-156 -17 -237 -69t-81 -134zM446 1147l148 303h219l-240 -303h-127z" />
    <glyph glyph-name="acircumflex" unicode="&#xe2;" horiz-adv-x="1091" 
d="M778 672q0 105 -69 168t-183 63q-107 0 -176.5 -60t-79.5 -163l-161 31q23 153 138 245.5t279 92.5q190 0 307 -104.5t117 -282.5v-662h-172v176q-44 -89 -137.5 -140.5t-206.5 -51.5q-155 0 -251.5 85.5t-96.5 219.5q0 149 121.5 232t370.5 108l200 22v21zM221 1147
l238 303h141l238 -303h-140l-168 182l-170 -182h-139zM260 291q0 -72 56 -118t145 -46q149 0 233 91.5t84 248.5v49l-200 -22q-156 -17 -237 -69t-81 -134z" />
    <glyph glyph-name="atilde" unicode="&#xe3;" horiz-adv-x="1091" 
d="M778 672q0 105 -69 168t-183 63q-107 0 -176.5 -60t-79.5 -163l-161 31q23 153 138 245.5t279 92.5q190 0 307 -104.5t117 -282.5v-662h-172v176q-44 -89 -137.5 -140.5t-206.5 -51.5q-155 0 -251.5 85.5t-96.5 219.5q0 149 121.5 232t370.5 108l200 22v21zM178 1219
q1 95 62 154t157 59q78 0 154 -56q62 -42 90 -50q18 -5 37 -5q83 0 92 102l127 -22q-5 -96 -64.5 -154.5t-154.5 -58.5q-72 0 -154 53q-5 3 -18 12.5t-18.5 13l-16.5 10.5t-18 10t-17 6.5t-19.5 5t-19.5 1.5q-39 0 -64.5 -26t-29.5 -76zM260 291q0 -72 56 -118t145 -46
q149 0 233 91.5t84 248.5v49l-200 -22q-156 -17 -237 -69t-81 -134z" />
    <glyph glyph-name="adieresis" unicode="&#xe4;" horiz-adv-x="1091" 
d="M778 672q0 105 -69 168t-183 63q-107 0 -176.5 -60t-79.5 -163l-161 31q23 153 138 245.5t279 92.5q190 0 307 -104.5t117 -282.5v-662h-172v176q-44 -89 -137.5 -140.5t-206.5 -51.5q-155 0 -251.5 85.5t-96.5 219.5q0 149 121.5 232t370.5 108l200 22v21zM231 1337
q0 50 33 83.5t82 33.5q51 0 85 -33.5t34 -83.5q0 -49 -34 -81.5t-85 -32.5q-50 0 -82.5 32.5t-32.5 81.5zM260 291q0 -72 56 -118t145 -46q149 0 233 91.5t84 248.5v49l-200 -22q-156 -17 -237 -69t-81 -134zM594 1337q0 50 33 83.5t84 33.5t84.5 -33.5t33.5 -83.5
q0 -49 -33.5 -81.5t-84.5 -32.5t-84 32t-33 82z" />
    <glyph glyph-name="aring" unicode="&#xe5;" horiz-adv-x="1091" 
d="M778 672q0 105 -69 168t-183 63q-107 0 -176.5 -60t-79.5 -163l-161 31q23 153 138 245.5t279 92.5q190 0 307 -104.5t117 -282.5v-662h-172v176q-44 -89 -137.5 -140.5t-206.5 -51.5q-155 0 -251.5 85.5t-96.5 219.5q0 149 121.5 232t370.5 108l200 22v21zM260 291
q0 -72 56 -118t145 -46q149 0 233 91.5t84 248.5v49l-200 -22q-156 -17 -237 -69t-81 -134zM309 1323q0 89 64 149t159 60q96 0 160 -60t64 -149q0 -91 -63.5 -151t-160.5 -60q-95 0 -159 60t-64 151zM424 1323q0 -47 31 -76.5t77 -29.5q48 0 79.5 29.5t31.5 76.5
q0 45 -31.5 74.5t-79.5 29.5q-46 0 -77 -29.5t-31 -74.5z" />
    <glyph glyph-name="ae" unicode="&#xe6;" horiz-adv-x="1873" 
d="M797 672q0 105 -72 168t-190 63q-106 0 -178.5 -59t-80.5 -144l-159 31q22 138 138.5 228t279.5 90q127 0 224.5 -47t151.5 -134q143 181 387 181q148 0 262 -66.5t173 -176t59 -243.5q0 -44 -4 -80h-815q9 -156 99.5 -251t230.5 -95q118 0 195.5 53t100.5 150l164 -39
q-38 -150 -159.5 -233.5t-300.5 -83.5q-141 0 -250 62t-174 171q-60 -111 -168 -172t-256 -61q-166 0 -267.5 85t-101.5 220q0 154 128.5 244t375.5 90h207v49zM262 291q0 -73 59 -119.5t150 -46.5q153 0 239.5 92t86.5 248v22h-207q-158 0 -243 -54t-85 -142zM983 629h625
q-12 122 -94.5 198t-215.5 76q-122 0 -205.5 -72.5t-109.5 -201.5z" />
    <glyph glyph-name="ccedilla" unicode="&#xe7;" horiz-adv-x="1124" 
d="M82 516q0 239 141 386t371 147q180 0 302.5 -91t150.5 -245l-173 -35q-17 95 -93 155t-183 60q-152 0 -243 -103t-91 -274t91 -274t243 -103q109 0 184 57.5t97 159.5l170 -34q-32 -149 -140 -237t-270 -99l-139 -287h-219l225 291q-194 28 -309 169t-115 357z" />
    <glyph glyph-name="egrave" unicode="&#xe8;" horiz-adv-x="1157" 
d="M637 1147h-127l-240 303h219zM82 516q0 147 59 267.5t174.5 193t266.5 72.5q148 0 262 -66.5t172.5 -176t58.5 -243.5q0 -44 -4 -80h-815q9 -156 99.5 -251t230.5 -95q118 0 196 53t101 150l164 -39q-38 -150 -160 -233.5t-301 -83.5q-150 0 -266.5 72t-177 192.5
t-60.5 267.5zM266 629h625q-12 122 -94 198t-215 76q-122 0 -206 -72.5t-110 -201.5z" />
    <glyph glyph-name="eacute" unicode="&#xe9;" horiz-adv-x="1157" 
d="M487 1147l148 303h219l-240 -303h-127zM82 516q0 147 59 267.5t174.5 193t266.5 72.5q148 0 262 -66.5t172.5 -176t58.5 -243.5q0 -44 -4 -80h-815q9 -156 99.5 -251t230.5 -95q118 0 196 53t101 150l164 -39q-38 -150 -160 -233.5t-301 -83.5q-150 0 -266.5 72
t-177 192.5t-60.5 267.5zM266 629h625q-12 122 -94 198t-215 76q-122 0 -206 -72.5t-110 -201.5z" />
    <glyph glyph-name="ecircumflex" unicode="&#xea;" horiz-adv-x="1157" 
d="M500 1450h141l238 -303h-140l-168 182l-170 -182h-139zM82 516q0 147 59 267.5t174.5 193t266.5 72.5q148 0 262 -66.5t172.5 -176t58.5 -243.5q0 -44 -4 -80h-815q9 -156 99.5 -251t230.5 -95q118 0 196 53t101 150l164 -39q-38 -150 -160 -233.5t-301 -83.5
q-150 0 -266.5 72t-177 192.5t-60.5 267.5zM266 629h625q-12 122 -94 198t-215 76q-122 0 -206 -72.5t-110 -201.5z" />
    <glyph glyph-name="edieresis" unicode="&#xeb;" horiz-adv-x="1157" 
d="M387 1223q-50 0 -82.5 32.5t-32.5 81.5q0 50 33 83.5t82 33.5q51 0 85 -33.5t34 -83.5q0 -49 -34 -81.5t-85 -32.5zM82 516q0 147 59 267.5t174.5 193t266.5 72.5q148 0 262 -66.5t172.5 -176t58.5 -243.5q0 -44 -4 -80h-815q9 -156 99.5 -251t230.5 -95q118 0 196 53
t101 150l164 -39q-38 -150 -160 -233.5t-301 -83.5q-150 0 -266.5 72t-177 192.5t-60.5 267.5zM266 629h625q-12 122 -94 198t-215 76q-122 0 -206 -72.5t-110 -201.5zM635 1337q0 50 33 83.5t84 33.5t84.5 -33.5t33.5 -83.5q0 -49 -33.5 -81.5t-84.5 -32.5t-84 32t-33 82z
" />
    <glyph glyph-name="igrave" unicode="&#xec;" horiz-adv-x="456" 
d="M141 0v1032h174v-1032h-174zM-74 1450h219l148 -303h-127z" />
    <glyph glyph-name="iacute" unicode="&#xed;" horiz-adv-x="456" 
d="M141 0v1032h174v-1032h-174zM143 1147l148 303h219l-240 -303h-127z" />
    <glyph glyph-name="icircumflex" unicode="&#xee;" horiz-adv-x="456" 
d="M141 0v1032h174v-1032h-174zM-82 1147l238 303h141l238 -303h-140l-168 182l-170 -182h-139z" />
    <glyph glyph-name="idieresis" unicode="&#xef;" horiz-adv-x="456" 
d="M141 0v1032h174v-1032h-174zM-72 1337q0 50 33 83.5t82 33.5q51 0 85 -33.5t34 -83.5q0 -49 -34 -81.5t-85 -32.5q-50 0 -82.5 32.5t-32.5 81.5zM291 1337q0 50 33 83.5t84 33.5t84.5 -33.5t33.5 -83.5q0 -49 -33.5 -81.5t-84.5 -32.5t-84 32t-33 82z" />
    <glyph glyph-name="eth" unicode="&#xf0;" horiz-adv-x="1224" 
d="M606 -16q-230 0 -377 150t-147 382q0 231 145.5 379.5t368.5 148.5q121 0 218 -53t149 -151q-35 234 -211 393l-308 -113l-36 103l241 88q-93 63 -219 108l205 54q89 -36 180 -101l211 78l35 -104l-152 -56q243 -246 234 -663q-6 -310 -153 -476.5t-384 -166.5zM260 516
q0 -167 95.5 -272t250.5 -105t250.5 105t95.5 272t-95.5 272t-250.5 105t-250.5 -105t-95.5 -272z" />
    <glyph glyph-name="ntilde" unicode="&#xf1;" horiz-adv-x="1179" 
d="M141 0v1032h174v-194q56 96 148.5 153.5t206.5 57.5q162 0 265 -101t103 -264v-684h-174v651q0 106 -63 173t-170 67q-145 0 -230.5 -117.5t-85.5 -320.5v-453h-174zM231 1219q1 95 62.5 154t157.5 59q77 0 153 -56q62 -42 90 -50q18 -5 37 -5q83 0 92 102l127 -22
q-5 -96 -64.5 -154.5t-154.5 -58.5q-71 0 -153 53q-5 3 -18 12.5t-18.5 13l-16.5 10.5t-18 10t-17 6.5t-19.5 5t-19.5 1.5q-39 0 -65 -26t-30 -76z" />
    <glyph glyph-name="ograve" unicode="&#xf2;" horiz-adv-x="1214" 
d="M606 -16q-230 0 -377 150t-147 382t147 382.5t377 150.5q229 0 378 -150.5t149 -382.5t-149 -382t-378 -150zM260 516q0 -167 95.5 -272t250.5 -105t250.5 105t95.5 272t-95.5 272t-250.5 105t-250.5 -105t-95.5 -272zM305 1450h219l148 -303h-127z" />
    <glyph glyph-name="oacute" unicode="&#xf3;" horiz-adv-x="1214" 
d="M606 -16q-230 0 -377 150t-147 382t147 382.5t377 150.5q229 0 378 -150.5t149 -382.5t-149 -382t-378 -150zM260 516q0 -167 95.5 -272t250.5 -105t250.5 105t95.5 272t-95.5 272t-250.5 105t-250.5 -105t-95.5 -272zM522 1147l148 303h219l-240 -303h-127z" />
    <glyph glyph-name="ocircumflex" unicode="&#xf4;" horiz-adv-x="1214" 
d="M606 -16q-230 0 -377 150t-147 382t147 382.5t377 150.5q229 0 378 -150.5t149 -382.5t-149 -382t-378 -150zM260 516q0 -167 95.5 -272t250.5 -105t250.5 105t95.5 272t-95.5 272t-250.5 105t-250.5 -105t-95.5 -272zM297 1147l238 303h141l237 -303h-139l-168 182
l-170 -182h-139z" />
    <glyph glyph-name="otilde" unicode="&#xf5;" horiz-adv-x="1214" 
d="M606 -16q-230 0 -377 150t-147 382t147 382.5t377 150.5q229 0 378 -150.5t149 -382.5t-149 -382t-378 -150zM254 1219q1 95 62 154t157 59q78 0 154 -56q62 -42 90 -50q18 -5 37 -5q83 0 92 102l127 -22q-5 -96 -64.5 -154.5t-154.5 -58.5q-72 0 -154 53q-5 3 -18 12.5
t-18.5 13l-16.5 10.5t-18 10t-17 6.5t-19.5 5t-19.5 1.5q-39 0 -64.5 -26t-29.5 -76zM260 516q0 -167 95.5 -272t250.5 -105t250.5 105t95.5 272t-95.5 272t-250.5 105t-250.5 -105t-95.5 -272z" />
    <glyph glyph-name="odieresis" unicode="&#xf6;" horiz-adv-x="1214" 
d="M606 -16q-230 0 -377 150t-147 382t147 382.5t377 150.5q229 0 378 -150.5t149 -382.5t-149 -382t-378 -150zM260 516q0 -167 95.5 -272t250.5 -105t250.5 105t95.5 272t-95.5 272t-250.5 105t-250.5 -105t-95.5 -272zM307 1337q0 50 33 83.5t82 33.5q51 0 85 -33.5
t34 -83.5q0 -49 -34 -81.5t-85 -32.5q-50 0 -82.5 32.5t-32.5 81.5zM670 1337q0 50 32.5 83.5t83.5 33.5t85 -33.5t34 -83.5q0 -49 -34 -81.5t-85 -32.5t-83.5 32t-32.5 82z" />
    <glyph glyph-name="divide" unicode="&#xf7;" horiz-adv-x="1099" 
d="M70 606v152h960v-152h-960zM432 289q0 53 35 88t90 35q53 0 89 -35.5t36 -87.5q0 -53 -36 -88t-89 -35q-55 0 -90 34.5t-35 88.5zM432 1075q0 53 35 88t90 35q53 0 89 -35.5t36 -87.5q0 -53 -36 -88t-89 -35q-55 0 -90 34.5t-35 88.5z" />
    <glyph glyph-name="oslash" unicode="&#xf8;" horiz-adv-x="1214" 
d="M606 -16q-167 0 -291 79l-120 -139l-113 99l121 141q-121 143 -121 352q0 232 147 382.5t377 150.5q160 0 289 -80l121 141l110 -98l-118 -140q125 -147 125 -356q0 -232 -149 -382t-378 -150zM260 516q0 -128 57 -219l471 547q-76 49 -182 49q-155 0 -250.5 -105
t-95.5 -272zM422 190q79 -51 184 -51q155 0 250.5 105t95.5 272q0 131 -59 223z" />
    <glyph glyph-name="ugrave" unicode="&#xf9;" horiz-adv-x="1179" 
d="M1038 1032v-1032h-174v195q-56 -96 -148 -153.5t-206 -57.5q-163 0 -266 100.5t-103 263.5v684h174v-651q0 -106 63.5 -173t170.5 -67q145 0 230 118t85 321v452h174zM285 1450h219l147 -303h-127z" />
    <glyph glyph-name="uacute" unicode="&#xfa;" horiz-adv-x="1179" 
d="M1038 1032v-1032h-174v195q-56 -96 -148 -153.5t-206 -57.5q-163 0 -266 100.5t-103 263.5v684h174v-651q0 -106 63.5 -173t170.5 -67q145 0 230 118t85 321v452h174zM500 1147l147 303h219l-239 -303h-127z" />
    <glyph glyph-name="ucircumflex" unicode="&#xfb;" horiz-adv-x="1179" 
d="M1038 1032v-1032h-174v195q-56 -96 -148 -153.5t-206 -57.5q-163 0 -266 100.5t-103 263.5v684h174v-651q0 -106 63.5 -173t170.5 -67q145 0 230 118t85 321v452h174zM274 1147l238 303h141l238 -303h-139l-168 182l-170 -182h-140z" />
    <glyph glyph-name="udieresis" unicode="&#xfc;" horiz-adv-x="1179" 
d="M1038 1032v-1032h-174v195q-56 -96 -148 -153.5t-206 -57.5q-163 0 -266 100.5t-103 263.5v684h174v-651q0 -106 63.5 -173t170.5 -67q145 0 230 118t85 321v452h174zM285 1337q0 50 32.5 83.5t81.5 33.5q51 0 85 -33.5t34 -83.5q0 -49 -34 -81.5t-85 -32.5
q-49 0 -81.5 32.5t-32.5 81.5zM647 1337q0 50 33 83.5t84 33.5t85 -33.5t34 -83.5q0 -49 -34 -81.5t-85 -32.5t-84 32t-33 82z" />
    <glyph glyph-name="yacute" unicode="&#xfd;" horiz-adv-x="1026" 
d="M821 1032h178l-540 -1405h-178l149 387l-403 1018h188l303 -790zM428 1147l147 303h220l-240 -303h-127z" />
    <glyph glyph-name="thorn" unicode="&#xfe;" horiz-adv-x="1230" 
d="M141 -418v1864h178v-547q58 68 151 109t185 41q231 0 362.5 -149.5t131.5 -383.5q0 -153 -57.5 -272.5t-171.5 -189.5t-269 -70q-103 0 -196.5 39t-135.5 96v-537h-178zM301 516q0 -169 87.5 -273t246.5 -104t248.5 104.5t89.5 272.5q0 167 -89.5 272t-248.5 105
q-158 0 -246 -104.5t-88 -272.5z" />
    <glyph glyph-name="ydieresis" unicode="&#xff;" horiz-adv-x="1026" 
d="M821 1032h178l-540 -1405h-178l149 387l-403 1018h188l303 -790zM213 1337q0 50 33 83.5t82 33.5q51 0 84.5 -33.5t33.5 -83.5q0 -49 -33.5 -81.5t-84.5 -32.5q-50 0 -82.5 32.5t-32.5 81.5zM575 1337q0 50 33 83.5t84 33.5t85 -33.5t34 -83.5q0 -49 -34 -81.5t-85 -32.5
t-84 32t-33 82z" />
    <glyph glyph-name="Amacron" unicode="&#x100;" horiz-adv-x="1343" 
d="M672 1188l-256 -658h510zM18 0l568 1434h170l569 -1434h-195l-141 365h-637l-141 -365h-193zM397 1612v143h547v-143h-547z" />
    <glyph glyph-name="amacron" unicode="&#x101;" horiz-adv-x="1091" 
d="M778 672q0 105 -69 168t-183 63q-107 0 -176.5 -60t-79.5 -163l-161 31q23 153 138 245.5t279 92.5q190 0 307 -104.5t117 -282.5v-662h-172v176q-44 -89 -137.5 -140.5t-206.5 -51.5q-155 0 -251.5 85.5t-96.5 219.5q0 149 121.5 232t370.5 108l200 22v21zM256 1210v144
h547v-144h-547zM260 291q0 -72 56 -118t145 -46q149 0 233 91.5t84 248.5v49l-200 -22q-156 -17 -237 -69t-81 -134z" />
    <glyph glyph-name="Abreve" unicode="&#x102;" horiz-adv-x="1343" 
d="M672 1188l-256 -658h510zM18 0l568 1434h170l569 -1434h-195l-141 365h-637l-141 -365h-193zM410 1802h139q0 -57 34.5 -94t88.5 -37q55 0 91 37t36 94h139q0 -113 -75.5 -186.5t-190.5 -73.5q-114 0 -188 73.5t-74 186.5z" />
    <glyph glyph-name="abreve" unicode="&#x103;" horiz-adv-x="1091" 
d="M778 672q0 105 -69 168t-183 63q-107 0 -176.5 -60t-79.5 -163l-161 31q23 153 138 245.5t279 92.5q190 0 307 -104.5t117 -282.5v-662h-172v176q-44 -89 -137.5 -140.5t-206.5 -51.5q-155 0 -251.5 85.5t-96.5 219.5q0 149 121.5 232t370.5 108l200 22v21zM260 291
q0 -72 56 -118t145 -46q149 0 233 91.5t84 248.5v49l-200 -22q-156 -17 -237 -69t-81 -134zM268 1401h140q0 -57 34 -94t88 -37q55 0 91 37t36 94h140q0 -112 -75.5 -186t-191.5 -74q-114 0 -188 73.5t-74 186.5z" />
    <glyph glyph-name="Aogonek" unicode="&#x104;" horiz-adv-x="1343" 
d="M672 1188l-256 -658h510zM18 0l568 1434h170l569 -1434h-35q-88 -92 -88 -158q0 -38 23.5 -60t62.5 -22q44 0 64 4l20 -143q-58 -10 -100 -10q-103 0 -167.5 56t-64.5 147q0 42 25.5 95.5t62.5 92.5l-139 363h-637l-141 -365h-193z" />
    <glyph glyph-name="aogonek" unicode="&#x105;" horiz-adv-x="1091" 
d="M778 672q0 105 -69 168t-183 63q-107 0 -176.5 -60t-79.5 -163l-161 31q23 153 138 245.5t279 92.5q190 0 307 -104.5t117 -282.5v-662q-88 -92 -88 -158q0 -38 23.5 -60t62.5 -22q44 0 64 4l20 -143q-57 -10 -100 -10q-103 0 -167.5 56t-64.5 147q0 42 25 94.5t61 91.5
h-8v176q-44 -89 -137.5 -140.5t-206.5 -51.5q-155 0 -251.5 85.5t-96.5 219.5q0 149 121.5 232t370.5 108l200 22v21zM260 291q0 -72 56 -118t145 -46q149 0 233 91.5t84 248.5v49l-200 -22q-156 -17 -237 -69t-81 -134z" />
    <glyph glyph-name="Cacute" unicode="&#x106;" horiz-adv-x="1462" 
d="M780 -16q-109 0 -210.5 28.5t-190 88t-154 144.5t-103.5 206.5t-38 265.5t38 265.5t104 206.5t154.5 144.5t189.5 88t210 28.5q234 0 397 -122.5t207 -330.5l-184 -41q-34 156 -144.5 242t-277.5 86q-110 0 -201.5 -37.5t-158.5 -108t-104.5 -178.5t-37.5 -243
q0 -268 138.5 -416.5t363.5 -148.5q166 0 273.5 81.5t146.5 231.5l186 -39q-55 -205 -214.5 -323.5t-389.5 -118.5zM680 1548l147 303h220l-240 -303h-127z" />
    <glyph glyph-name="cacute" unicode="&#x107;" horiz-adv-x="1124" 
d="M594 -16q-230 0 -371 146.5t-141 385.5t141 386t371 147q180 0 302.5 -91t150.5 -245l-173 -35q-17 95 -93 155t-183 60q-152 0 -243 -103t-91 -274t91 -274t243 -103q109 0 184 57.5t97 159.5l170 -34q-34 -159 -155 -248.5t-300 -89.5zM504 1147l147 303h219l-239 -303
h-127z" />
    <glyph glyph-name="Ccircumflex" unicode="&#x108;" horiz-adv-x="1462" 
d="M780 -16q-109 0 -210.5 28.5t-190 88t-154 144.5t-103.5 206.5t-38 265.5t38 265.5t104 206.5t154.5 144.5t189.5 88t210 28.5q234 0 397 -122.5t207 -330.5l-184 -41q-34 156 -144.5 242t-277.5 86q-110 0 -201.5 -37.5t-158.5 -108t-104.5 -178.5t-37.5 -243
q0 -268 138.5 -416.5t363.5 -148.5q166 0 273.5 81.5t146.5 231.5l186 -39q-55 -205 -214.5 -323.5t-389.5 -118.5zM455 1548l237 303h142l237 -303h-139l-168 183l-170 -183h-139z" />
    <glyph glyph-name="ccircumflex" unicode="&#x109;" horiz-adv-x="1124" 
d="M594 -16q-230 0 -371 146.5t-141 385.5t141 386t371 147q180 0 302.5 -91t150.5 -245l-173 -35q-17 95 -93 155t-183 60q-152 0 -243 -103t-91 -274t91 -274t243 -103q109 0 184 57.5t97 159.5l170 -34q-34 -159 -155 -248.5t-300 -89.5zM279 1147l237 303h141l238 -303
h-139l-168 182l-170 -182h-139z" />
    <glyph glyph-name="Cdotaccent" unicode="&#x10a;" horiz-adv-x="1462" 
d="M780 -16q-109 0 -210.5 28.5t-190 88t-154 144.5t-103.5 206.5t-38 265.5t38 265.5t104 206.5t154.5 144.5t189.5 88t210 28.5q234 0 397 -122.5t207 -330.5l-184 -41q-34 156 -144.5 242t-277.5 86q-110 0 -201.5 -37.5t-158.5 -108t-104.5 -178.5t-37.5 -243
q0 -268 138.5 -416.5t363.5 -148.5q166 0 273.5 81.5t146.5 231.5l186 -39q-55 -205 -214.5 -323.5t-389.5 -118.5zM643 1749q0 53 34.5 88t86.5 35q54 0 89.5 -35t35.5 -88q0 -51 -35.5 -86t-89.5 -35q-52 0 -86.5 35t-34.5 86z" />
    <glyph glyph-name="cdotaccent" unicode="&#x10b;" horiz-adv-x="1124" 
d="M594 -16q-230 0 -371 146.5t-141 385.5t141 386t371 147q180 0 302.5 -91t150.5 -245l-173 -35q-17 95 -93 155t-183 60q-152 0 -243 -103t-91 -274t91 -274t243 -103q109 0 184 57.5t97 159.5l170 -34q-34 -159 -155 -248.5t-300 -89.5zM467 1348q0 53 34.5 87.5
t86.5 34.5q54 0 89.5 -34.5t35.5 -87.5q0 -51 -35.5 -86t-89.5 -35q-52 0 -86.5 35t-34.5 86z" />
    <glyph glyph-name="Ccaron" unicode="&#x10c;" horiz-adv-x="1462" 
d="M780 -16q-109 0 -210.5 28.5t-190 88t-154 144.5t-103.5 206.5t-38 265.5t38 265.5t104 206.5t154.5 144.5t189.5 88t210 28.5q234 0 397 -122.5t207 -330.5l-184 -41q-34 156 -144.5 242t-277.5 86q-110 0 -201.5 -37.5t-158.5 -108t-104.5 -178.5t-37.5 -243
q0 -268 138.5 -416.5t363.5 -148.5q166 0 273.5 81.5t146.5 231.5l186 -39q-55 -205 -214.5 -323.5t-389.5 -118.5zM455 1851h139l170 -182l168 182h139l-237 -303h-142z" />
    <glyph glyph-name="ccaron" unicode="&#x10d;" horiz-adv-x="1124" 
d="M594 -16q-230 0 -371 146.5t-141 385.5t141 386t371 147q180 0 302.5 -91t150.5 -245l-173 -35q-17 95 -93 155t-183 60q-152 0 -243 -103t-91 -274t91 -274t243 -103q109 0 184 57.5t97 159.5l170 -34q-34 -159 -155 -248.5t-300 -89.5zM281 1450h139l170 -182l168 182
h139l-238 -303h-141z" />
    <glyph glyph-name="Dcaron" unicode="&#x10e;" horiz-adv-x="1378" 
d="M150 0v1434h425q151 0 281.5 -48t228 -137t153.5 -226t56 -306t-56 -306t-153.5 -226t-228 -137t-281.5 -48h-425zM307 1851h139l170 -182l168 182h140l-238 -303h-141zM334 168h235q107 0 200.5 31.5t169 95.5t119.5 172.5t44 249.5t-44 250t-119.5 173t-169 96
t-200.5 32h-235v-1100z" />
    <glyph glyph-name="dcaron" unicode="&#x10f;" horiz-adv-x="1394" 
d="M580 -16q-157 0 -271 70.5t-170.5 189.5t-56.5 272t56.5 272.5t170.5 190t269 70.5q102 0 194.5 -45.5t142.5 -118.5v565h175v-1450h-175v150q-36 -72 -129.5 -119t-205.5 -47zM260 516q0 -170 92 -273.5t244 -103.5t244 103.5t92 273.5t-92 273.5t-244 103.5
t-244 -103.5t-92 -273.5zM1186 1147l65 356h181l-142 -356h-104z" />
    <glyph glyph-name="Dcroat" unicode="&#x110;" horiz-adv-x="1378" 
d="M150 0v651h-125v131h125v652h425q151 0 281.5 -48t228 -137t153.5 -226t56 -306t-56 -306t-153.5 -226t-228 -137t-281.5 -48h-425zM334 168h235q107 0 200.5 31.5t169 95.5t119.5 172.5t44 249.5t-44 250t-119.5 173t-169 96t-200.5 32h-235v-486h309v-131h-309v-483z
" />
    <glyph glyph-name="dcroat" unicode="&#x111;" horiz-adv-x="1230" 
d="M580 -16q-157 0 -271 70.5t-170.5 189.5t-56.5 272t56.5 272.5t170.5 190t269 70.5q102 0 194.5 -45.5t142.5 -118.5v289h-278v131h278v145h175v-145h165v-131h-165v-1174h-175v150q-36 -72 -129.5 -119t-205.5 -47zM260 516q0 -170 92 -273.5t244 -103.5t244 103.5
t92 273.5t-92 273.5t-244 103.5t-244 -103.5t-92 -273.5z" />
    <glyph glyph-name="Emacron" unicode="&#x112;" horiz-adv-x="1161" 
d="M150 0v1434h903v-166h-717v-422h582v-168h-582v-510h739v-168h-925zM344 1612v143h547v-143h-547z" />
    <glyph glyph-name="emacron" unicode="&#x113;" horiz-adv-x="1157" 
d="M297 1210v144h547v-144h-547zM82 516q0 147 59 267.5t174.5 193t266.5 72.5q148 0 262 -66.5t172.5 -176t58.5 -243.5q0 -44 -4 -80h-815q9 -156 99.5 -251t230.5 -95q118 0 196 53t101 150l164 -39q-38 -150 -160 -233.5t-301 -83.5q-150 0 -266.5 72t-177 192.5
t-60.5 267.5zM266 629h625q-12 122 -94 198t-215 76q-122 0 -206 -72.5t-110 -201.5z" />
    <glyph glyph-name="Ebreve" unicode="&#x114;" horiz-adv-x="1161" 
d="M150 0v1434h903v-166h-717v-422h582v-168h-582v-510h739v-168h-925zM356 1802h140q0 -57 34 -94t88 -37q55 0 91 37t36 94h140q0 -112 -75.5 -186t-191.5 -74q-114 0 -188 73.5t-74 186.5z" />
    <glyph glyph-name="ebreve" unicode="&#x115;" horiz-adv-x="1157" 
d="M571 1141q-114 0 -188 73.5t-74 186.5h140q0 -57 34 -94t88 -37q55 0 91 37t36 94h140q0 -112 -75.5 -186t-191.5 -74zM82 516q0 147 59 267.5t174.5 193t266.5 72.5q148 0 262 -66.5t172.5 -176t58.5 -243.5q0 -44 -4 -80h-815q9 -156 99.5 -251t230.5 -95q118 0 196 53
t101 150l164 -39q-38 -150 -160 -233.5t-301 -83.5q-150 0 -266.5 72t-177 192.5t-60.5 267.5zM266 629h625q-12 122 -94 198t-215 76q-122 0 -206 -72.5t-110 -201.5z" />
    <glyph glyph-name="Edotaccent" unicode="&#x116;" horiz-adv-x="1161" 
d="M150 0v1434h903v-166h-717v-422h582v-168h-582v-510h739v-168h-925zM498 1749q0 53 34 88t86 35q54 0 89.5 -35t35.5 -88q0 -51 -35.5 -86t-89.5 -35q-52 0 -86 35t-34 86z" />
    <glyph glyph-name="edotaccent" unicode="&#x117;" horiz-adv-x="1157" 
d="M571 1227q-52 0 -86 35t-34 86q0 53 34 87.5t86 34.5q54 0 89.5 -34.5t35.5 -87.5q0 -51 -35.5 -86t-89.5 -35zM82 516q0 147 59 267.5t174.5 193t266.5 72.5q148 0 262 -66.5t172.5 -176t58.5 -243.5q0 -44 -4 -80h-815q9 -156 99.5 -251t230.5 -95q118 0 196 53
t101 150l164 -39q-38 -150 -160 -233.5t-301 -83.5q-150 0 -266.5 72t-177 192.5t-60.5 267.5zM266 629h625q-12 122 -94 198t-215 76q-122 0 -206 -72.5t-110 -201.5z" />
    <glyph glyph-name="Eogonek" unicode="&#x118;" horiz-adv-x="1161" 
d="M150 0v1434h903v-166h-717v-422h582v-168h-582v-510h739v-168q-88 -92 -88 -158q0 -38 23.5 -60t62.5 -22q44 0 64 4l20 -143q-58 -10 -100 -10q-103 0 -167.5 56t-64.5 147q0 42 25 94.5t61 91.5h-761z" />
    <glyph glyph-name="eogonek" unicode="&#x119;" horiz-adv-x="1157" 
d="M694 -389q-103 0 -167 56t-64 147q0 37 21 84.5t53 87.5q-137 12 -241.5 86.5t-159 190t-54.5 253.5q0 147 59 267.5t174.5 193t266.5 72.5q148 0 262 -66.5t172.5 -176t58.5 -243.5q0 -44 -4 -80h-815q9 -156 99.5 -251t230.5 -95q118 0 196 53t101 150l164 -39
q-30 -122 -119 -201t-219 -106q-84 -88 -84 -152q0 -38 23.5 -60t62.5 -22q43 0 63 4l21 -143q-58 -10 -101 -10zM266 629h625q-12 122 -94 198t-215 76q-122 0 -206 -72.5t-110 -201.5z" />
    <glyph glyph-name="Ecaron" unicode="&#x11a;" horiz-adv-x="1161" 
d="M150 0v1434h903v-166h-717v-422h582v-168h-582v-510h739v-168h-925zM309 1851h140l169 -182l168 182h140l-238 -303h-141z" />
    <glyph glyph-name="ecaron" unicode="&#x11b;" horiz-adv-x="1157" 
d="M500 1147l-238 303h139l170 -182l168 182h140l-238 -303h-141zM82 516q0 147 59 267.5t174.5 193t266.5 72.5q148 0 262 -66.5t172.5 -176t58.5 -243.5q0 -44 -4 -80h-815q9 -156 99.5 -251t230.5 -95q118 0 196 53t101 150l164 -39q-38 -150 -160 -233.5t-301 -83.5
q-150 0 -266.5 72t-177 192.5t-60.5 267.5zM266 629h625q-12 122 -94 198t-215 76q-122 0 -206 -72.5t-110 -201.5z" />
    <glyph glyph-name="Gcircumflex" unicode="&#x11c;" horiz-adv-x="1519" 
d="M774 -16q-136 0 -258.5 47t-219.5 135.5t-154.5 231t-57.5 319.5q0 143 38 263.5t103.5 206t153.5 145.5t189 89t210 29q239 0 404.5 -123t208.5 -330l-185 -39q-31 152 -144.5 239t-283.5 87q-224 0 -363 -150t-139 -417t138.5 -416t361.5 -149q199 0 319.5 117.5
t125.5 308.5h-500v161h676v-739h-170v221q-49 -108 -174 -172.5t-279 -64.5zM444 1548l238 303h141l238 -303h-139l-168 183l-170 -183h-140z" />
    <glyph glyph-name="gcircumflex" unicode="&#x11d;" horiz-adv-x="1216" 
d="M573 27q-231 0 -361 142.5t-130 367.5q0 226 129 369t358 143q102 0 195 -44t139 -112v139h172v-983q0 -195 -133.5 -316.5t-347.5 -121.5q-180 0 -307 87t-150 226l168 29q7 -86 88.5 -140.5t200.5 -54.5q137 0 223 76t86 197v143q-35 -66 -127 -106.5t-203 -40.5z
M260 537q0 -161 89.5 -258t240.5 -97q149 0 238.5 97t89.5 258q0 163 -89.5 259.5t-238.5 96.5q-151 0 -240.5 -96.5t-89.5 -259.5zM276 1147l238 303h141l238 -303h-139l-168 182l-170 -182h-140z" />
    <glyph glyph-name="Gbreve" unicode="&#x11e;" horiz-adv-x="1519" 
d="M774 -16q-136 0 -258.5 47t-219.5 135.5t-154.5 231t-57.5 319.5q0 143 38 263.5t103.5 206t153.5 145.5t189 89t210 29q239 0 404.5 -123t208.5 -330l-185 -39q-31 152 -144.5 239t-283.5 87q-224 0 -363 -150t-139 -417t138.5 -416t361.5 -149q199 0 319.5 117.5
t125.5 308.5h-500v161h676v-739h-170v221q-49 -108 -174 -172.5t-279 -64.5zM492 1802h139q0 -57 34.5 -94t88.5 -37q55 0 91 37t36 94h139q0 -113 -75.5 -186.5t-190.5 -73.5q-114 0 -188 73.5t-74 186.5z" />
    <glyph glyph-name="gbreve" unicode="&#x11f;" horiz-adv-x="1216" 
d="M573 27q-231 0 -361 142.5t-130 367.5q0 226 129 369t358 143q102 0 195 -44t139 -112v139h172v-983q0 -195 -133.5 -316.5t-347.5 -121.5q-180 0 -307 87t-150 226l168 29q7 -86 88.5 -140.5t200.5 -54.5q137 0 223 76t86 197v143q-35 -66 -127 -106.5t-203 -40.5z
M260 537q0 -161 89.5 -258t240.5 -97q149 0 238.5 97t89.5 258q0 163 -89.5 259.5t-238.5 96.5q-151 0 -240.5 -96.5t-89.5 -259.5zM324 1401h139q0 -57 34.5 -94t88.5 -37q55 0 91 37t36 94h139q0 -113 -75.5 -186.5t-190.5 -73.5q-114 0 -188 73.5t-74 186.5z" />
    <glyph glyph-name="Gdotaccent" unicode="&#x120;" horiz-adv-x="1519" 
d="M774 -16q-136 0 -258.5 47t-219.5 135.5t-154.5 231t-57.5 319.5q0 143 38 263.5t103.5 206t153.5 145.5t189 89t210 29q239 0 404.5 -123t208.5 -330l-185 -39q-31 152 -144.5 239t-283.5 87q-224 0 -363 -150t-139 -417t138.5 -416t361.5 -149q199 0 319.5 117.5
t125.5 308.5h-500v161h676v-739h-170v221q-49 -108 -174 -172.5t-279 -64.5zM633 1749q0 53 34.5 88t86.5 35q54 0 89.5 -35t35.5 -88q0 -51 -35.5 -86t-89.5 -35q-52 0 -86.5 35t-34.5 86z" />
    <glyph glyph-name="gdotaccent" unicode="&#x121;" horiz-adv-x="1216" 
d="M573 27q-231 0 -361 142.5t-130 367.5q0 226 129 369t358 143q102 0 195 -44t139 -112v139h172v-983q0 -195 -133.5 -316.5t-347.5 -121.5q-180 0 -307 87t-150 226l168 29q7 -86 88.5 -140.5t200.5 -54.5q137 0 223 76t86 197v143q-35 -66 -127 -106.5t-203 -40.5z
M260 537q0 -161 89.5 -258t240.5 -97q149 0 238.5 97t89.5 258q0 163 -89.5 259.5t-238.5 96.5q-151 0 -240.5 -96.5t-89.5 -259.5zM467 1348q0 53 34.5 87.5t86.5 34.5q54 0 89.5 -34.5t35.5 -87.5q0 -51 -35.5 -86t-89.5 -35q-52 0 -86.5 35t-34.5 86z" />
    <glyph glyph-name="uni0122" unicode="&#x122;" horiz-adv-x="1519" 
d="M774 -16q-136 0 -258.5 47t-219.5 135.5t-154.5 231t-57.5 319.5q0 143 38 263.5t103.5 206t153.5 145.5t189 89t210 29q239 0 404.5 -123t208.5 -330l-185 -39q-31 152 -144.5 239t-283.5 87q-224 0 -363 -150t-139 -417t138.5 -416t361.5 -149q199 0 319.5 117.5
t125.5 308.5h-500v161h676v-739h-170v221q-49 -108 -174 -172.5t-279 -64.5zM563 -389l90 303h201l-164 -303h-127z" />
    <glyph glyph-name="uni0123" unicode="&#x123;" horiz-adv-x="1216" 
d="M573 27q-231 0 -361 142.5t-130 367.5q0 226 129 369t358 143q102 0 195 -44t139 -112v139h172v-983q0 -195 -133.5 -316.5t-347.5 -121.5q-180 0 -307 87t-150 226l168 29q7 -86 88.5 -140.5t200.5 -54.5q137 0 223 76t86 197v143q-35 -66 -127 -106.5t-203 -40.5z
M260 537q0 -161 89.5 -258t240.5 -97q149 0 238.5 97t89.5 258q0 163 -89.5 259.5t-238.5 96.5q-151 0 -240.5 -96.5t-89.5 -259.5zM518 1147l123 303h131l-59 -303h-195z" />
    <glyph glyph-name="Hcircumflex" unicode="&#x124;" horiz-adv-x="1415" 
d="M1079 1434h187v-1434h-187v672h-743v-672h-186v1434h186v-594h743v594zM397 1548l238 303h141l238 -303h-140l-167 183l-170 -183h-140z" />
    <glyph glyph-name="hcircumflex" unicode="&#x125;" horiz-adv-x="1196" 
d="M141 0v1450h174v-621q56 109 147 164.5t206 55.5q175 0 281 -101t106 -268v-680h-174v647q0 114 -67 179t-185 65q-143 0 -228.5 -121.5t-85.5 -327.5v-442h-174zM-84 1548l238 303h141l237 -303h-139l-168 183l-170 -183h-139z" />
    <glyph glyph-name="Hbar" unicode="&#x126;" horiz-adv-x="1415" 
d="M1079 1434h187v-224h141v-149h-141v-1061h-187v672h-743v-672h-186v1061h-142v149h142v224h186v-224h743v224zM336 840h743v221h-743v-221z" />
    <glyph glyph-name="hbar" unicode="&#x127;" horiz-adv-x="1196" 
d="M141 0v1174h-170v131h170v145h174v-145h275v-131h-275v-345q56 109 147 164.5t206 55.5q175 0 281 -101t106 -268v-680h-174v647q0 114 -67 179t-185 65q-143 0 -228.5 -121.5t-85.5 -327.5v-442h-174z" />
    <glyph glyph-name="Itilde" unicode="&#x128;" horiz-adv-x="483" 
d="M150 0v1434h186v-1434h-186zM-113 1620q1 95 62 154t157 59q79 0 154 -55q3 -2 14 -9.5t14 -9.5t12.5 -8t14 -8.5t13 -6.5t14.5 -6t14 -4t15.5 -3t15.5 -1q83 0 92 103l127 -23q-5 -96 -64.5 -154.5t-154.5 -58.5q-72 0 -154 53q-6 4 -21.5 15t-21.5 15t-18.5 11.5
t-21 10.5t-20.5 5.5t-24 2.5q-39 0 -64.5 -26.5t-29.5 -76.5z" />
    <glyph glyph-name="itilde" unicode="&#x129;" horiz-adv-x="456" 
d="M141 0v1032h174v-1032h-174zM-125 1219q1 95 62 154t157 59q78 0 154 -56q62 -42 90 -50q18 -5 37 -5q83 0 92 102l127 -22q-5 -96 -64.5 -154.5t-154.5 -58.5q-72 0 -154 53q-5 3 -18 12.5t-18.5 13l-16.5 10.5t-18 10t-17 6.5t-19.5 5t-19.5 1.5q-39 0 -64.5 -26
t-29.5 -76z" />
    <glyph glyph-name="Imacron" unicode="&#x12a;" horiz-adv-x="483" 
d="M150 0v1434h186v-1434h-186zM-33 1612v143h547v-143h-547z" />
    <glyph glyph-name="imacron" unicode="&#x12b;" horiz-adv-x="456" 
d="M141 0v1032h174v-1032h-174zM-47 1210v144h547v-144h-547z" />
    <glyph glyph-name="Ibreve" unicode="&#x12c;" horiz-adv-x="483" 
d="M150 0v1434h186v-1434h-186zM-23 1802h140q0 -57 34.5 -94t88.5 -37q55 0 91 37t36 94h139q0 -113 -75.5 -186.5t-190.5 -73.5q-114 0 -188.5 73.5t-74.5 186.5z" />
    <glyph glyph-name="ibreve" unicode="&#x12d;" horiz-adv-x="456" 
d="M141 0v1032h174v-1032h-174zM-35 1401h139q0 -57 34.5 -94t88.5 -37q55 0 91 37t36 94h140q0 -112 -75.5 -186t-191.5 -74q-114 0 -188 73.5t-74 186.5z" />
    <glyph glyph-name="Iogonek" unicode="&#x12e;" horiz-adv-x="483" 
d="M150 0v1434h186v-1434q-88 -92 -88 -158q0 -38 23.5 -60t62.5 -22q43 0 63 4l21 -143q-57 -10 -101 -10q-103 0 -167 56t-64 147q0 42 25 94.5t61 91.5h-22z" />
    <glyph glyph-name="iogonek" unicode="&#x12f;" horiz-adv-x="456" 
d="M141 0v1032h174v-1032q-88 -92 -88 -158q0 -38 23.5 -60t62.5 -22q44 0 64 4l20 -143q-57 -10 -100 -10q-103 0 -167 56t-64 147q0 42 25 94.5t61 91.5h-11zM106 1348q0 53 34.5 87.5t86.5 34.5q54 0 89.5 -34.5t35.5 -87.5q0 -51 -35.5 -86t-89.5 -35q-52 0 -86.5 35
t-34.5 86z" />
    <glyph glyph-name="Idotaccent" unicode="&#x130;" horiz-adv-x="483" 
d="M150 0v1434h186v-1434h-186zM119 1749q0 53 34.5 88t86.5 35q54 0 89.5 -35t35.5 -88q0 -51 -35.5 -86t-89.5 -35q-52 0 -86.5 35t-34.5 86z" />
    <glyph glyph-name="dotlessi" unicode="&#x131;" horiz-adv-x="456" 
d="M141 0v1032h174v-1032h-174z" />
    <glyph glyph-name="IJ" unicode="&#x132;" horiz-adv-x="1177" 
d="M150 0v1434h186v-1434h-186zM535 4v166q50 -16 106 -16q107 0 156 57.5t49 194.5v1028h182v-1022q0 -212 -98 -318t-268 -106q-61 0 -127 16z" />
    <glyph glyph-name="Jcircumflex" unicode="&#x134;" horiz-adv-x="694" 
d="M51 170q50 -16 107 -16q107 0 155.5 57.5t48.5 194.5v1028h183v-1022q0 -212 -98.5 -318t-268.5 -106q-61 0 -127 16v166zM143 1548l238 303h141l238 -303h-139l-168 183l-170 -183h-140z" />
    <glyph glyph-name="jcircumflex" unicode="&#x135;" horiz-adv-x="458" 
d="M14 -389l-43 2l-4 156q14 -2 29 -2q75 0 112 50t37 142v1073h174v-1095q0 -144 -84 -235t-221 -91zM-78 1147l238 303h141l238 -303h-140l-168 182l-170 -182h-139z" />
    <glyph glyph-name="uni0136" unicode="&#x136;" horiz-adv-x="1288" 
d="M336 0h-186v1434h186v-650l627 650h247l-553 -570l613 -864h-226l-518 733l-190 -196v-537zM422 -389l90 303h201l-164 -303h-127z" />
    <glyph glyph-name="uni0137" unicode="&#x137;" horiz-adv-x="1087" 
d="M317 0h-176v1450h176v-838l478 420h231l-442 -407l477 -625h-217l-389 508l-138 -125v-383zM319 -389l91 303h200l-164 -303h-127z" />
    <glyph glyph-name="kgreenlandic" unicode="&#x138;" horiz-adv-x="1087" 
d="M317 1032v-426l484 426h221l-442 -403l481 -629h-217l-393 512l-134 -123v-389h-176v1032h176z" />
    <glyph glyph-name="Lacute" unicode="&#x139;" horiz-adv-x="1075" 
d="M150 0v1434h186v-1266h711v-168h-897zM156 1548l147 303h219l-239 -303h-127z" />
    <glyph glyph-name="lacute" unicode="&#x13a;" horiz-adv-x="456" 
d="M141 0v1450h174v-1450h-174zM137 1548l148 303h219l-240 -303h-127z" />
    <glyph glyph-name="uni013B" unicode="&#x13b;" horiz-adv-x="1075" 
d="M150 0v1434h186v-1266h711v-168h-897zM453 -389l90 303h200l-163 -303h-127z" />
    <glyph glyph-name="uni013C" unicode="&#x13c;" horiz-adv-x="456" 
d="M141 0v1450h174v-1450h-174zM33 -389l90 303h201l-164 -303h-127z" />
    <glyph glyph-name="Lcaron" unicode="&#x13d;" horiz-adv-x="1075" 
d="M150 0v1434h186v-1266h711v-168h-897zM446 1147l66 356h180l-141 -356h-105z" />
    <glyph glyph-name="lcaron" unicode="&#x13e;" horiz-adv-x="622" 
d="M141 0v1450h174v-1450h-174zM412 1147l65 356h180l-141 -356h-104z" />
    <glyph glyph-name="Ldot" unicode="&#x13f;" horiz-adv-x="1075" 
d="M150 0v1434h186v-1266h711v-168h-897zM614 729q0 53 35 88t90 35q53 0 89 -35.5t36 -87.5q0 -53 -36 -88t-89 -35q-55 0 -90 34.5t-35 88.5z" />
    <glyph glyph-name="ldot" unicode="&#x140;" horiz-adv-x="796" 
d="M141 0v1450h174v-1450h-174zM406 709q0 53 34.5 87.5t89.5 34.5q53 0 89 -35t36 -87q0 -53 -36 -88t-89 -35q-55 0 -89.5 34.5t-34.5 88.5z" />
    <glyph glyph-name="Lslash" unicode="&#x141;" horiz-adv-x="1075" 
d="M696 811l-360 -170v-473h711v-168h-897v555l-179 -84v160l179 84v719h186v-633l360 168v-158z" />
    <glyph glyph-name="lslash" unicode="&#x142;" horiz-adv-x="583" 
d="M559 803l-180 -84v-719h-174v637l-180 -84v158l180 84v655h174v-571l180 84v-160z" />
    <glyph glyph-name="Nacute" unicode="&#x143;" horiz-adv-x="1411" 
d="M150 0v1434h206l723 -1141v1141h183v-1434h-207l-723 1137v-1137h-182zM623 1548l147 303h219l-239 -303h-127z" />
    <glyph glyph-name="nacute" unicode="&#x144;" horiz-adv-x="1179" 
d="M141 0v1032h174v-194q56 96 148.5 153.5t206.5 57.5q162 0 265 -101t103 -264v-684h-174v651q0 106 -63 173t-170 67q-145 0 -230.5 -117.5t-85.5 -320.5v-453h-174zM500 1147l147 303h219l-239 -303h-127z" />
    <glyph glyph-name="uni0145" unicode="&#x145;" horiz-adv-x="1411" 
d="M150 0v1434h206l723 -1141v1141h183v-1434h-207l-723 1137v-1137h-182zM518 -389l90 303h201l-164 -303h-127z" />
    <glyph glyph-name="uni0146" unicode="&#x146;" horiz-adv-x="1179" 
d="M141 0v1032h174v-194q56 96 148.5 153.5t206.5 57.5q162 0 265 -101t103 -264v-684h-174v651q0 106 -63 173t-170 67q-145 0 -230.5 -117.5t-85.5 -320.5v-453h-174zM395 -389l90 303h201l-164 -303h-127z" />
    <glyph glyph-name="Ncaron" unicode="&#x147;" horiz-adv-x="1411" 
d="M150 0v1434h206l723 -1141v1141h183v-1434h-207l-723 1137v-1137h-182zM397 1851h140l170 -182l167 182h140l-238 -303h-141z" />
    <glyph glyph-name="ncaron" unicode="&#x148;" horiz-adv-x="1179" 
d="M141 0v1032h174v-194q56 96 148.5 153.5t206.5 57.5q162 0 265 -101t103 -264v-684h-174v651q0 106 -63 173t-170 67q-145 0 -230.5 -117.5t-85.5 -320.5v-453h-174zM274 1450h140l170 -182l168 182h139l-238 -303h-141z" />
    <glyph glyph-name="napostrophe" unicode="&#x149;" horiz-adv-x="1185" 
d="M141 1147l66 356h180l-141 -356h-105zM147 0v1032h175v-194q56 96 148 153.5t206 57.5q162 0 265 -101t103 -264v-684h-174v651q0 106 -63 173t-170 67q-145 0 -230 -117.5t-85 -320.5v-453h-175z" />
    <glyph glyph-name="Eng" unicode="&#x14a;" horiz-adv-x="1411" 
d="M909 -266q90 -7 131 41t41 151v49l-749 1162v-1137h-182v1434h206l723 -1141v1141h183v-1536q0 -153 -97.5 -245t-255.5 -79v160z" />
    <glyph glyph-name="eng" unicode="&#x14b;" horiz-adv-x="1179" 
d="M723 -389q-25 0 -37 2l-6 160q10 -2 31 -2q153 3 153 194v686q0 106 -63 173t-170 67q-145 0 -230.5 -117.5t-85.5 -320.5v-453h-174v1032h174v-194q56 96 148.5 153.5t206.5 57.5q162 0 265 -101t103 -264v-756q0 -139 -87 -228t-228 -89z" />
    <glyph glyph-name="Omacron" unicode="&#x14c;" horiz-adv-x="1579" 
d="M791 -16q-202 0 -364 94t-252.5 261.5t-90.5 377.5t90.5 377.5t252.5 261.5t364 94q201 0 362 -94t251.5 -261.5t90.5 -377.5t-90.5 -377.5t-251.5 -261.5t-362 -94zM274 717q0 -246 145.5 -405.5t368.5 -159.5q226 0 371.5 159.5t145.5 405.5t-146 406.5t-371 160.5
q-223 0 -368.5 -160.5t-145.5 -406.5zM516 1612v143h547v-143h-547z" />
    <glyph glyph-name="omacron" unicode="&#x14d;" horiz-adv-x="1214" 
d="M606 -16q-230 0 -377 150t-147 382t147 382.5t377 150.5q229 0 378 -150.5t149 -382.5t-149 -382t-378 -150zM260 516q0 -167 95.5 -272t250.5 -105t250.5 105t95.5 272t-95.5 272t-250.5 105t-250.5 -105t-95.5 -272zM332 1210v144h547v-144h-547z" />
    <glyph glyph-name="Obreve" unicode="&#x14e;" horiz-adv-x="1579" 
d="M791 -16q-202 0 -364 94t-252.5 261.5t-90.5 377.5t90.5 377.5t252.5 261.5t364 94q201 0 362 -94t251.5 -261.5t90.5 -377.5t-90.5 -377.5t-251.5 -261.5t-362 -94zM274 717q0 -246 145.5 -405.5t368.5 -159.5q226 0 371.5 159.5t145.5 405.5t-146 406.5t-371 160.5
q-223 0 -368.5 -160.5t-145.5 -406.5zM526 1802h140q0 -57 34 -94t88 -37q55 0 91 37t36 94h140q0 -112 -75.5 -186t-191.5 -74q-114 0 -188 73.5t-74 186.5z" />
    <glyph glyph-name="obreve" unicode="&#x14f;" horiz-adv-x="1214" 
d="M606 -16q-230 0 -377 150t-147 382t147 382.5t377 150.5q229 0 378 -150.5t149 -382.5t-149 -382t-378 -150zM260 516q0 -167 95.5 -272t250.5 -105t250.5 105t95.5 272t-95.5 272t-250.5 105t-250.5 -105t-95.5 -272zM344 1401h139q0 -57 34.5 -94t88.5 -37q55 0 91 37
t36 94h139q0 -113 -75.5 -186.5t-190.5 -73.5q-114 0 -188 73.5t-74 186.5z" />
    <glyph glyph-name="Ohungarumlaut" unicode="&#x150;" horiz-adv-x="1579" 
d="M791 -16q-202 0 -364 94t-252.5 261.5t-90.5 377.5t90.5 377.5t252.5 261.5t364 94q201 0 362 -94t251.5 -261.5t90.5 -377.5t-90.5 -377.5t-251.5 -261.5t-362 -94zM274 717q0 -246 145.5 -405.5t368.5 -159.5q226 0 371.5 159.5t145.5 405.5t-146 406.5t-371 160.5
q-223 0 -368.5 -160.5t-145.5 -406.5zM547 1548l147 303h168l-166 -303h-149zM827 1548l148 303h170l-168 -303h-150z" />
    <glyph glyph-name="ohungarumlaut" unicode="&#x151;" horiz-adv-x="1214" 
d="M606 -16q-230 0 -377 150t-147 382t147 382.5t377 150.5q229 0 378 -150.5t149 -382.5t-149 -382t-378 -150zM260 516q0 -167 95.5 -272t250.5 -105t250.5 105t95.5 272t-95.5 272t-250.5 105t-250.5 -105t-95.5 -272zM365 1147l147 303h168l-166 -303h-149zM645 1147
l148 303h170l-168 -303h-150z" />
    <glyph glyph-name="OE" unicode="&#x152;" horiz-adv-x="2342" 
d="M791 -16q-202 0 -364 94t-252.5 261.5t-90.5 377.5t90.5 377.5t252.5 261.5t364 94q165 0 304.5 -65t235.5 -183v232h903v-166h-716v-422h581v-168h-581v-510h739v-168h-926v231q-96 -118 -235 -182.5t-305 -64.5zM274 717q0 -246 145.5 -405.5t368.5 -159.5
q226 0 371.5 159.5t145.5 405.5t-146 406.5t-371 160.5q-223 0 -368.5 -160.5t-145.5 -406.5z" />
    <glyph glyph-name="oe" unicode="&#x153;" horiz-adv-x="2037" 
d="M606 -16q-230 0 -377 150t-147 382t147 382.5t377 150.5q139 0 253.5 -60t184.5 -166q65 105 172.5 165.5t245.5 60.5q148 0 262 -66.5t173 -176t59 -243.5q0 -44 -4 -80h-815q9 -157 99 -251.5t230 -94.5q118 0 196 53t101 150l164 -39q-38 -150 -160 -233.5t-301 -83.5
q-138 0 -246 60.5t-173 166.5q-70 -107 -185 -167t-256 -60zM260 516q0 -167 95.5 -272t250.5 -105t250.5 105t95.5 272t-95.5 272t-250.5 105t-250.5 -105t-95.5 -272zM1147 629h625q-12 122 -94.5 198t-215.5 76q-122 0 -205.5 -72.5t-109.5 -201.5z" />
    <glyph glyph-name="Racute" unicode="&#x154;" horiz-adv-x="1292" 
d="M150 0v1434h516q204 0 327 -109t123 -289q0 -131 -70.5 -228t-195.5 -140l414 -668h-220l-387 639h-321v-639h-186zM336 807h309q132 0 206.5 60.5t74.5 168.5q0 109 -74.5 170.5t-206.5 61.5h-309v-461zM496 1548l147 303h219l-239 -303h-127z" />
    <glyph glyph-name="racute" unicode="&#x155;" horiz-adv-x="784" 
d="M745 862q-61 25 -133 25q-130 0 -213.5 -126.5t-83.5 -367.5v-393h-174v1032h174v-209q44 98 135.5 162t186.5 64q64 0 119 -19zM354 1147l148 303h219l-240 -303h-127z" />
    <glyph glyph-name="uni0156" unicode="&#x156;" horiz-adv-x="1292" 
d="M150 0v1434h516q204 0 327 -109t123 -289q0 -131 -70.5 -228t-195.5 -140l414 -668h-220l-387 639h-321v-639h-186zM336 807h309q132 0 206.5 60.5t74.5 168.5q0 109 -74.5 170.5t-206.5 61.5h-309v-461zM451 -389l90 303h200l-163 -303h-127z" />
    <glyph glyph-name="uni0157" unicode="&#x157;" horiz-adv-x="784" 
d="M745 862q-61 25 -133 25q-130 0 -213.5 -126.5t-83.5 -367.5v-393h-174v1032h174v-209q44 98 135.5 162t186.5 64q64 0 119 -19zM35 -389l90 303h201l-164 -303h-127z" />
    <glyph glyph-name="Rcaron" unicode="&#x158;" horiz-adv-x="1292" 
d="M150 0v1434h516q204 0 327 -109t123 -289q0 -131 -70.5 -228t-195.5 -140l414 -668h-220l-387 639h-321v-639h-186zM270 1851h140l170 -182l168 182h139l-238 -303h-141zM336 807h309q132 0 206.5 60.5t74.5 168.5q0 109 -74.5 170.5t-206.5 61.5h-309v-461z" />
    <glyph glyph-name="rcaron" unicode="&#x159;" horiz-adv-x="784" 
d="M745 862q-61 25 -133 25q-130 0 -213.5 -126.5t-83.5 -367.5v-393h-174v1032h174v-209q44 98 135.5 162t186.5 64q64 0 119 -19zM131 1450h139l170 -182l168 182h140l-238 -303h-141z" />
    <glyph glyph-name="Sacute" unicode="&#x15a;" horiz-adv-x="1200" 
d="M604 -16q-207 0 -358.5 122t-186.5 318l177 57q22 -150 125 -240.5t247 -90.5q148 0 236 64t88 171q0 61 -28 107.5t-75 76t-108 52.5t-129 42.5t-135.5 40.5t-128.5 51.5t-108 71t-75 104t-28 144.5q0 167 135 271t348 104q197 0 335.5 -97.5t166.5 -256.5l-170 -66
q-22 118 -110 186t-222 68q-138 0 -216.5 -56t-78.5 -153q0 -52 28 -90.5t75.5 -62.5t109 -43t129 -37.5t135.5 -39.5t129.5 -55t109 -79.5t75.5 -117t28 -163.5q0 -183 -142.5 -293t-377.5 -110zM512 1548l147 303h220l-240 -303h-127z" />
    <glyph glyph-name="sacute" unicode="&#x15b;" horiz-adv-x="946" 
d="M487 -16q-90 0 -165.5 26t-127 70.5t-85.5 96t-52 108.5l150 65q71 -219 280 -219q93 0 151 46.5t58 111.5q0 53 -33 89t-85 55t-115.5 34t-127 35.5t-115.5 50t-85 86t-33 135.5q0 124 99 199.5t264 75.5q137 0 244 -70.5t139 -183.5l-146 -64q-21 78 -89 126t-152 48
q-89 0 -140 -34t-51 -95q0 -44 33 -73.5t85.5 -45.5t116.5 -30t127.5 -36.5t116 -55.5t85 -95t32.5 -149q0 -136 -105 -221.5t-274 -85.5zM381 1147l147 303h220l-240 -303h-127z" />
    <glyph glyph-name="Scircumflex" unicode="&#x15c;" horiz-adv-x="1200" 
d="M604 -16q-207 0 -358.5 122t-186.5 318l177 57q22 -150 125 -240.5t247 -90.5q148 0 236 64t88 171q0 61 -28 107.5t-75 76t-108 52.5t-129 42.5t-135.5 40.5t-128.5 51.5t-108 71t-75 104t-28 144.5q0 167 135 271t348 104q197 0 335.5 -97.5t166.5 -256.5l-170 -66
q-22 118 -110 186t-222 68q-138 0 -216.5 -56t-78.5 -153q0 -52 28 -90.5t75.5 -62.5t109 -43t129 -37.5t135.5 -39.5t129.5 -55t109 -79.5t75.5 -117t28 -163.5q0 -183 -142.5 -293t-377.5 -110zM287 1548l237 303h142l237 -303h-139l-168 183l-170 -183h-139z" />
    <glyph glyph-name="scircumflex" unicode="&#x15d;" horiz-adv-x="946" 
d="M487 -16q-90 0 -165.5 26t-127 70.5t-85.5 96t-52 108.5l150 65q71 -219 280 -219q93 0 151 46.5t58 111.5q0 53 -33 89t-85 55t-115.5 34t-127 35.5t-115.5 50t-85 86t-33 135.5q0 124 99 199.5t264 75.5q137 0 244 -70.5t139 -183.5l-146 -64q-21 78 -89 126t-152 48
q-89 0 -140 -34t-51 -95q0 -44 33 -73.5t85.5 -45.5t116.5 -30t127.5 -36.5t116 -55.5t85 -95t32.5 -149q0 -136 -105 -221.5t-274 -85.5zM156 1147l237 303h142l237 -303h-139l-168 182l-170 -182h-139z" />
    <glyph glyph-name="Scedilla" unicode="&#x15e;" horiz-adv-x="1200" 
d="M59 424l177 57q22 -150 125 -240.5t247 -90.5q148 0 236 64t88 171q0 61 -28 107.5t-75 76t-108 52.5t-129 42.5t-135.5 40.5t-128.5 51.5t-108 71t-75 104t-28 144.5q0 167 135 271t348 104q197 0 335.5 -97.5t166.5 -256.5l-170 -66q-22 118 -110 186t-222 68
q-138 0 -216.5 -56t-78.5 -153q0 -52 28 -90.5t75.5 -62.5t109 -43t129 -37.5t135.5 -39.5t129.5 -55t109 -79.5t75.5 -117t28 -163.5q0 -167 -120.5 -274.5t-325.5 -124.5l-139 -289h-220l224 287q-187 19 -319.5 138t-164.5 300z" />
    <glyph glyph-name="scedilla" unicode="&#x15f;" horiz-adv-x="946" 
d="M57 285l150 65q71 -219 280 -219q93 0 151 46.5t58 111.5q0 53 -33 89t-85 55t-115.5 34t-127 35.5t-115.5 50t-85 86t-33 135.5q0 124 99 199.5t264 75.5q137 0 244 -70.5t139 -183.5l-146 -64q-21 78 -89 126t-152 48q-89 0 -140 -34t-51 -95q0 -44 33 -73.5
t85.5 -45.5t116.5 -30t127.5 -36.5t116 -55.5t85 -95t32.5 -149q0 -125 -87.5 -207.5t-235.5 -97.5l-140 -287h-219l226 291q-140 19 -229 102.5t-124 192.5z" />
    <glyph glyph-name="Scaron" unicode="&#x160;" horiz-adv-x="1200" 
d="M604 -16q-207 0 -358.5 122t-186.5 318l177 57q22 -150 125 -240.5t247 -90.5q148 0 236 64t88 171q0 61 -28 107.5t-75 76t-108 52.5t-129 42.5t-135.5 40.5t-128.5 51.5t-108 71t-75 104t-28 144.5q0 167 135 271t348 104q197 0 335.5 -97.5t166.5 -256.5l-170 -66
q-22 118 -110 186t-222 68q-138 0 -216.5 -56t-78.5 -153q0 -52 28 -90.5t75.5 -62.5t109 -43t129 -37.5t135.5 -39.5t129.5 -55t109 -79.5t75.5 -117t28 -163.5q0 -183 -142.5 -293t-377.5 -110zM289 1851h139l170 -182l168 182h139l-237 -303h-142z" />
    <glyph glyph-name="scaron" unicode="&#x161;" horiz-adv-x="946" 
d="M487 -16q-90 0 -165.5 26t-127 70.5t-85.5 96t-52 108.5l150 65q71 -219 280 -219q93 0 151 46.5t58 111.5q0 53 -33 89t-85 55t-115.5 34t-127 35.5t-115.5 50t-85 86t-33 135.5q0 124 99 199.5t264 75.5q137 0 244 -70.5t139 -183.5l-146 -64q-21 78 -89 126t-152 48
q-89 0 -140 -34t-51 -95q0 -44 33 -73.5t85.5 -45.5t116.5 -30t127.5 -36.5t116 -55.5t85 -95t32.5 -149q0 -136 -105 -221.5t-274 -85.5zM156 1450h139l170 -182l168 182h139l-237 -303h-142z" />
    <glyph glyph-name="uni0162" unicode="&#x162;" horiz-adv-x="1173" 
d="M494 0v1268h-457v166h1098v-166h-455v-1268l-148 -301h-219l234 301h-53z" />
    <glyph glyph-name="uni0163" unicode="&#x163;" horiz-adv-x="751" 
d="M690 8q-68 -24 -162 -24h-24l-139 -285h-220l242 311q-164 71 -164 299v570h-192v153h192v314h174v-314h277v-153h-277v-576q0 -79 41 -120.5t111 -41.5q74 0 129 27z" />
    <glyph glyph-name="Tcaron" unicode="&#x164;" horiz-adv-x="1173" 
d="M494 0v1268h-457v166h1098v-166h-455v-1268h-186zM276 1851h140l170 -182l168 182h139l-238 -303h-141z" />
    <glyph glyph-name="tcaron" unicode="&#x165;" horiz-adv-x="751" 
d="M690 8q-68 -24 -162 -24q-139 0 -222 81t-83 244v570h-192v153h192v314h174v-314h277v-153h-277v-576q0 -79 41 -120.5t111 -41.5q74 0 129 27zM561 1147l66 356h180l-141 -356h-105z" />
    <glyph glyph-name="Tbar" unicode="&#x166;" horiz-adv-x="1144" 
d="M104 745v152h390v371h-457v166h1098v-166h-455v-371h362v-152h-362v-745h-186v745h-390z" />
    <glyph glyph-name="tbar" unicode="&#x167;" horiz-adv-x="751" 
d="M690 8q-68 -24 -162 -24q-139 0 -222 81t-83 244v142h-188v131h188v297h-192v153h192v314h174v-314h277v-153h-277v-297h256v-131h-256v-148q0 -79 41 -120.5t111 -41.5q74 0 129 27z" />
    <glyph glyph-name="Utilde" unicode="&#x168;" horiz-adv-x="1384" 
d="M692 -16q-247 0 -394.5 137.5t-147.5 374.5v938h182v-949q0 -155 98 -244t262 -89q166 0 265.5 89t99.5 244v949h180v-938q0 -237 -148.5 -374.5t-396.5 -137.5zM340 1620q1 95 62 154t157 59q79 0 154 -55q3 -2 14 -9.5t14 -9.5t12.5 -8t14 -8.5t13 -6.5t14.5 -6t14 -4
t15.5 -3t15.5 -1q83 0 92 103l127 -23q-5 -96 -64.5 -154.5t-154.5 -58.5q-72 0 -154 53q-6 4 -21.5 15t-21.5 15t-18.5 11.5t-21 10.5t-20.5 5.5t-24 2.5q-39 0 -64.5 -26.5t-29.5 -76.5z" />
    <glyph glyph-name="utilde" unicode="&#x169;" horiz-adv-x="1179" 
d="M1038 1032v-1032h-174v195q-56 -96 -148 -153.5t-206 -57.5q-163 0 -266 100.5t-103 263.5v684h174v-651q0 -106 63.5 -173t170.5 -67q145 0 230 118t85 321v452h174zM231 1219q1 95 62.5 154t157.5 59q77 0 153 -56q62 -42 90 -50q18 -5 37 -5q83 0 92 102l127 -22
q-5 -96 -64.5 -154.5t-154.5 -58.5q-71 0 -153 53q-5 3 -18 12.5t-18.5 13l-16.5 10.5t-18 10t-17 6.5t-19.5 5t-19.5 1.5q-39 0 -65 -26t-30 -76z" />
    <glyph glyph-name="Umacron" unicode="&#x16a;" horiz-adv-x="1384" 
d="M692 -16q-247 0 -394.5 137.5t-147.5 374.5v938h182v-949q0 -155 98 -244t262 -89q166 0 265.5 89t99.5 244v949h180v-938q0 -237 -148.5 -374.5t-396.5 -137.5zM418 1612v143h547v-143h-547z" />
    <glyph glyph-name="umacron" unicode="&#x16b;" horiz-adv-x="1179" 
d="M1038 1032v-1032h-174v195q-56 -96 -148 -153.5t-206 -57.5q-163 0 -266 100.5t-103 263.5v684h174v-651q0 -106 63.5 -173t170.5 -67q145 0 230 118t85 321v452h174zM309 1210v144h547v-144h-547z" />
    <glyph glyph-name="Ubreve" unicode="&#x16c;" horiz-adv-x="1384" 
d="M692 -16q-247 0 -394.5 137.5t-147.5 374.5v938h182v-949q0 -155 98 -244t262 -89q166 0 265.5 89t99.5 244v949h180v-938q0 -237 -148.5 -374.5t-396.5 -137.5zM430 1802h139q0 -57 34.5 -94t88.5 -37q55 0 91 37t36 94h139q0 -113 -75.5 -186.5t-190.5 -73.5
q-114 0 -188 73.5t-74 186.5z" />
    <glyph glyph-name="ubreve" unicode="&#x16d;" horiz-adv-x="1179" 
d="M1038 1032v-1032h-174v195q-56 -96 -148 -153.5t-206 -57.5q-163 0 -266 100.5t-103 263.5v684h174v-651q0 -106 63.5 -173t170.5 -67q145 0 230 118t85 321v452h174zM322 1401h139q0 -57 34.5 -94t88.5 -37q55 0 91 37t36 94h139q0 -113 -75.5 -186.5t-190.5 -73.5
q-114 0 -188 73.5t-74 186.5z" />
    <glyph glyph-name="Uring" unicode="&#x16e;" horiz-adv-x="1384" 
d="M692 -16q-247 0 -394.5 137.5t-147.5 374.5v938h182v-949q0 -155 98 -244t262 -89q166 0 265.5 89t99.5 244v949h180v-938q0 -237 -148.5 -374.5t-396.5 -137.5zM469 1724q0 89 64 149t159 60q96 0 159.5 -59.5t63.5 -149.5q0 -91 -63 -151t-160 -60q-95 0 -159 60
t-64 151zM584 1724q0 -47 31 -76.5t77 -29.5q48 0 79.5 29.5t31.5 76.5q0 46 -31.5 75.5t-79.5 29.5q-46 0 -77 -30t-31 -75z" />
    <glyph glyph-name="uring" unicode="&#x16f;" horiz-adv-x="1179" 
d="M1038 1032v-1032h-174v195q-56 -96 -148 -153.5t-206 -57.5q-163 0 -266 100.5t-103 263.5v684h174v-651q0 -106 63.5 -173t170.5 -67q145 0 230 118t85 321v452h174zM362 1323q0 89 64.5 149t159.5 60q96 0 159.5 -59.5t63.5 -149.5q0 -91 -63 -151t-160 -60
q-96 0 -160 60t-64 151zM477 1323q0 -47 31.5 -76.5t77.5 -29.5q48 0 79 29.5t31 76.5q0 45 -31 74.5t-79 29.5q-46 0 -77.5 -29.5t-31.5 -74.5z" />
    <glyph glyph-name="Uhungarumlaut" unicode="&#x170;" horiz-adv-x="1384" 
d="M692 -16q-247 0 -394.5 137.5t-147.5 374.5v938h182v-949q0 -155 98 -244t262 -89q166 0 265.5 89t99.5 244v949h180v-938q0 -237 -148.5 -374.5t-396.5 -137.5zM451 1548l147 303h168l-166 -303h-149zM731 1548l148 303h170l-168 -303h-150z" />
    <glyph glyph-name="uhungarumlaut" unicode="&#x171;" horiz-adv-x="1179" 
d="M1038 1032v-1032h-174v195q-56 -96 -148 -153.5t-206 -57.5q-163 0 -266 100.5t-103 263.5v684h174v-651q0 -106 63.5 -173t170.5 -67q145 0 230 118t85 321v452h174zM342 1147l147 303h168l-165 -303h-150zM623 1147l147 303h170l-168 -303h-149z" />
    <glyph glyph-name="Uogonek" unicode="&#x172;" horiz-adv-x="1384" 
d="M758 -389q-103 0 -167.5 56t-64.5 147q0 39 21.5 87t54.5 89q-208 24 -330 158t-122 348v938h182v-949q0 -155 98 -244t262 -89q166 0 265.5 89t99.5 244v949h180v-938q0 -219 -128 -354t-345 -154q-76 -87 -76 -146q0 -38 23.5 -60t62.5 -22q44 0 64 4l20 -143
q-58 -10 -100 -10z" />
    <glyph glyph-name="uogonek" unicode="&#x173;" horiz-adv-x="1179" 
d="M1038 1032v-1032h-10q-88 -92 -88 -158q0 -38 23.5 -60t62.5 -22q44 0 64 4l20 -143q-58 -10 -100 -10q-103 0 -167.5 56t-64.5 147q0 42 25 94.5t61 91.5v195q-56 -96 -148 -153.5t-206 -57.5q-163 0 -266 100.5t-103 263.5v684h174v-651q0 -106 63.5 -173t170.5 -67
q145 0 230 118t85 321v452h174z" />
    <glyph glyph-name="Wcircumflex" unicode="&#x174;" horiz-adv-x="2027" 
d="M473 0l-436 1434h192l342 -1219l347 1219h194l344 -1219l342 1219h193l-435 -1434h-196l-344 1155l-348 -1155h-195zM707 1548l237 303h141l238 -303h-139l-168 183l-170 -183h-139z" />
    <glyph glyph-name="wcircumflex" unicode="&#x175;" horiz-adv-x="1564" 
d="M371 0l-316 1032h178l224 -788l241 788h168l242 -788l221 788h182l-317 -1032h-170l-242 784l-241 -784h-170zM473 1147l238 303h141l238 -303h-140l-168 182l-170 -182h-139z" />
    <glyph glyph-name="Ycircumflex" unicode="&#x176;" horiz-adv-x="1214" 
d="M512 0v600l-504 834h211l387 -656l389 656h211l-506 -834v-600h-188zM297 1548l238 303h141l237 -303h-139l-168 183l-170 -183h-139z" />
    <glyph glyph-name="ycircumflex" unicode="&#x177;" horiz-adv-x="1026" 
d="M821 1032h178l-540 -1405h-178l149 387l-403 1018h188l303 -790zM203 1147l237 303h142l237 -303h-139l-168 182l-170 -182h-139z" />
    <glyph glyph-name="Ydieresis" unicode="&#x178;" horiz-adv-x="1214" 
d="M512 0v600l-504 834h211l387 -656l389 656h211l-506 -834v-600h-188zM307 1739q0 50 33 83t82 33q51 0 85 -33t34 -83q0 -49 -34 -82t-85 -33q-50 0 -82.5 33t-32.5 82zM670 1739q0 50 32.5 83t83.5 33t85 -33t34 -83q0 -49 -34 -82t-85 -33t-83.5 32.5t-32.5 82.5z" />
    <glyph glyph-name="Zacute" unicode="&#x179;" horiz-adv-x="1212" 
d="M51 0v162l864 1106h-819v166h1037v-162l-850 -1104h850v-168h-1082zM510 1548l147 303h220l-240 -303h-127z" />
    <glyph glyph-name="zacute" unicode="&#x17a;" horiz-adv-x="1003" 
d="M68 0v133l637 746h-601v153h822v-133l-629 -745h633v-154h-862zM434 1147l148 303h219l-240 -303h-127z" />
    <glyph glyph-name="Zdotaccent" unicode="&#x17b;" horiz-adv-x="1212" 
d="M51 0v162l864 1106h-819v166h1037v-162l-850 -1104h850v-168h-1082zM473 1749q0 53 34.5 88t86.5 35q54 0 89.5 -35t35.5 -88q0 -51 -35.5 -86t-89.5 -35q-52 0 -86.5 35t-34.5 86z" />
    <glyph glyph-name="zdotaccent" unicode="&#x17c;" horiz-adv-x="1003" 
d="M68 0v133l637 746h-601v153h822v-133l-629 -745h633v-154h-862zM397 1348q0 53 34.5 87.5t86.5 34.5q54 0 89.5 -34.5t35.5 -87.5q0 -51 -35.5 -86t-89.5 -35q-52 0 -86.5 35t-34.5 86z" />
    <glyph glyph-name="Zcaron" unicode="&#x17d;" horiz-adv-x="1212" 
d="M51 0v162l864 1106h-819v166h1037v-162l-850 -1104h850v-168h-1082zM285 1851h139l170 -182l168 182h139l-237 -303h-142z" />
    <glyph glyph-name="zcaron" unicode="&#x17e;" horiz-adv-x="1003" 
d="M68 0v133l637 746h-601v153h822v-133l-629 -745h633v-154h-862zM209 1450h139l170 -182l168 182h139l-237 -303h-142z" />
    <glyph glyph-name="longs" unicode="&#x17f;" horiz-adv-x="747" 
d="M244 0v883h-176v149h176v96q0 166 84.5 257.5t220.5 91.5q77 0 141 -17l-10 -155q-50 20 -107 20q-70 0 -113.5 -50t-43.5 -134v-1141h-172z" />
    <glyph glyph-name="florin" unicode="&#x192;" horiz-adv-x="966" 
d="M899 1032v-149h-307l-86 -551q-56 -348 -305 -348q-76 0 -140 18l9 154q56 -21 108 -21q66 0 104.5 44.5t51.5 139.5l86 564h-213v149h237l15 96q56 349 307 349q78 0 139 -17l-8 -155q-53 20 -109 20q-66 0 -104 -44.5t-51 -139.5l-17 -109h283z" />
    <glyph glyph-name="Aringacute" unicode="&#x1fa;" horiz-adv-x="1343" 
d="M672 1188l-256 -658h510zM18 0l568 1434h170l569 -1434h-195l-141 365h-637l-141 -365h-193zM449 1724q0 73 43.5 127.5t113.5 73.5l142 289h219l-230 -289q71 -19 114.5 -74t43.5 -127q0 -91 -63 -151t-160 -60q-95 0 -159 60t-64 151zM563 1724q0 -47 31.5 -76.5
t77.5 -29.5q48 0 79 29.5t31 76.5q0 46 -31.5 75.5t-78.5 29.5q-46 0 -77.5 -30t-31.5 -75z" />
    <glyph glyph-name="aringacute" unicode="&#x1fb;" horiz-adv-x="1091" 
d="M778 672q0 105 -69 168t-183 63q-107 0 -176.5 -60t-79.5 -163l-161 31q23 153 138 245.5t279 92.5q190 0 307 -104.5t117 -282.5v-662h-172v176q-44 -89 -137.5 -140.5t-206.5 -51.5q-155 0 -251.5 85.5t-96.5 219.5q0 149 121.5 232t370.5 108l200 22v21zM260 291
q0 -72 56 -118t145 -46q149 0 233 91.5t84 248.5v49l-200 -22q-156 -17 -237 -69t-81 -134zM309 1323q0 86 60 145t151 64l144 293h219l-240 -303h-39q69 -20 110.5 -74.5t41.5 -124.5q0 -91 -63.5 -151t-160.5 -60q-95 0 -159 60t-64 151zM424 1323q0 -47 31 -76.5
t77 -29.5q48 0 79.5 29.5t31.5 76.5q0 45 -31.5 74.5t-79.5 29.5q-46 0 -77 -29.5t-31 -74.5z" />
    <glyph glyph-name="AEacute" unicode="&#x1fc;" horiz-adv-x="1953" 
d="M219 0h-205l826 1434h1005v-166h-717v-422h582v-168h-582v-510h740v-168h-926v381h-508zM528 549h414v735zM965 1548l147 303h219l-239 -303h-127z" />
    <glyph glyph-name="aeacute" unicode="&#x1fd;" horiz-adv-x="1873" 
d="M797 672q0 105 -72 168t-190 63q-106 0 -178.5 -59t-80.5 -144l-159 31q22 138 138.5 228t279.5 90q127 0 224.5 -47t151.5 -134q143 181 387 181q148 0 262 -66.5t173 -176t59 -243.5q0 -44 -4 -80h-815q9 -156 99.5 -251t230.5 -95q118 0 195.5 53t100.5 150l164 -39
q-38 -150 -159.5 -233.5t-300.5 -83.5q-141 0 -250 62t-174 171q-60 -111 -168 -172t-256 -61q-166 0 -267.5 85t-101.5 220q0 154 128.5 244t375.5 90h207v49zM262 291q0 -73 59 -119.5t150 -46.5q153 0 239.5 92t86.5 248v22h-207q-158 0 -243 -54t-85 -142zM872 1147
l148 303h219l-240 -303h-127zM983 629h625q-12 122 -94.5 198t-215.5 76q-122 0 -205.5 -72.5t-109.5 -201.5z" />
    <glyph glyph-name="uni0218" unicode="&#x218;" horiz-adv-x="1200" 
d="M604 -16q-207 0 -358.5 122t-186.5 318l177 57q22 -150 125 -240.5t247 -90.5q148 0 236 64t88 171q0 61 -28 107.5t-75 76t-108 52.5t-129 42.5t-135.5 40.5t-128.5 51.5t-108 71t-75 104t-28 144.5q0 167 135 271t348 104q197 0 335.5 -97.5t166.5 -256.5l-170 -66
q-22 118 -110 186t-222 68q-138 0 -216.5 -56t-78.5 -153q0 -52 28 -90.5t75.5 -62.5t109 -43t129 -37.5t135.5 -39.5t129.5 -55t109 -79.5t75.5 -117t28 -163.5q0 -183 -142.5 -293t-377.5 -110zM401 -389l91 303h200l-164 -303h-127z" />
    <glyph glyph-name="uni0219" unicode="&#x219;" horiz-adv-x="946" 
d="M487 -16q-90 0 -165.5 26t-127 70.5t-85.5 96t-52 108.5l150 65q71 -219 280 -219q93 0 151 46.5t58 111.5q0 53 -33 89t-85 55t-115.5 34t-127 35.5t-115.5 50t-85 86t-33 135.5q0 124 99 199.5t264 75.5q137 0 244 -70.5t139 -183.5l-146 -64q-21 78 -89 126t-152 48
q-89 0 -140 -34t-51 -95q0 -44 33 -73.5t85.5 -45.5t116.5 -30t127.5 -36.5t116 -55.5t85 -95t32.5 -149q0 -136 -105 -221.5t-274 -85.5zM268 -389l90 303h201l-164 -303h-127z" />
    <glyph glyph-name="uni021A" unicode="&#x21a;" horiz-adv-x="1173" 
d="M494 0v1268h-457v166h1098v-166h-455v-1268h-186zM397 -389l90 303h201l-164 -303h-127z" />
    <glyph glyph-name="uni021B" unicode="&#x21b;" horiz-adv-x="751" 
d="M690 8q-68 -24 -162 -24q-139 0 -222 81t-83 244v570h-192v153h192v314h174v-314h277v-153h-277v-576q0 -79 41 -120.5t111 -41.5q74 0 129 27zM227 -389l90 303h201l-164 -303h-127z" />
    <glyph glyph-name="uni0237" unicode="&#x237;" horiz-adv-x="458" 
d="M14 -389l-43 2l-4 156q14 -2 29 -2q75 0 112 50t37 142v1073h174v-1095q0 -144 -84 -235t-221 -91z" />
    <glyph glyph-name="uni02BC" unicode="&#x2bc;" horiz-adv-x="450" 
d="M102 1147l66 356h180l-141 -356h-105z" />
    <glyph glyph-name="circumflex" unicode="&#x2c6;" horiz-adv-x="821" 
d="M340 1450h141l238 -303h-139l-168 182l-170 -182h-140z" />
    <glyph glyph-name="caron" unicode="&#x2c7;" horiz-adv-x="821" 
d="M340 1147l-238 303h140l170 -182l168 182h139l-238 -303h-141z" />
    <glyph glyph-name="breve" unicode="&#x2d8;" horiz-adv-x="733" 
d="M365 1141q-114 0 -188.5 73.5t-74.5 186.5h140q0 -57 34.5 -94t88.5 -37q55 0 91 37t36 94h139q0 -113 -75.5 -186.5t-190.5 -73.5z" />
    <glyph glyph-name="dotaccent" unicode="&#x2d9;" horiz-adv-x="450" 
d="M223 1227q-52 0 -86.5 35t-34.5 86q0 53 34.5 87.5t86.5 34.5q54 0 89.5 -34.5t35.5 -87.5q0 -51 -35.5 -86t-89.5 -35z" />
    <glyph glyph-name="ring" unicode="&#x2da;" horiz-adv-x="651" 
d="M326 1112q-96 0 -160 60t-64 151q0 89 64.5 149t159.5 60q96 0 159.5 -59.5t63.5 -149.5q0 -91 -63 -151t-160 -60zM217 1323q0 -47 31.5 -76.5t77.5 -29.5q48 0 79 29.5t31 76.5q0 45 -31 74.5t-79 29.5q-46 0 -77.5 -29.5t-31.5 -74.5z" />
    <glyph glyph-name="ogonek" unicode="&#x2db;" horiz-adv-x="536" 
d="M334 -389q-103 0 -167.5 56t-64.5 147q0 46 30.5 104.5t72.5 97.5l147 -16q-88 -92 -88 -158q0 -38 23.5 -60t62.5 -22q44 0 64 4l20 -143q-57 -10 -100 -10z" />
    <glyph glyph-name="tilde" unicode="&#x2dc;" horiz-adv-x="923" 
d="M102 1219q1 95 62.5 154t157.5 59q77 0 153 -56q62 -42 90 -50q18 -5 37 -5q83 0 92 102l127 -22q-5 -96 -64.5 -154.5t-154.5 -58.5q-71 0 -153 53q-5 3 -18 12.5t-18.5 13l-16.5 10.5t-18 10t-17 6.5t-19.5 5t-19.5 1.5q-39 0 -65 -26t-30 -76z" />
    <glyph glyph-name="hungarumlaut" unicode="&#x2dd;" horiz-adv-x="802" 
d="M102 1147l148 303h168l-166 -303h-150zM383 1147l147 303h170l-168 -303h-149z" />
    <glyph glyph-name="gravecomb" unicode="&#x300;" 
d="M422 1147h-127l-240 303h219z" />
    <glyph glyph-name="acutecomb" unicode="&#x301;" 
d="M102 1147l148 303h219l-240 -303h-127z" />
    <glyph glyph-name="uni0302" unicode="&#x302;" 
d="M340 1450h141l238 -303h-139l-168 182l-170 -182h-140z" />
    <glyph glyph-name="tildecomb" unicode="&#x303;" 
d="M102 1219q1 95 62.5 154t157.5 59q77 0 153 -56q62 -42 90 -50q18 -5 37 -5q83 0 92 102l127 -22q-5 -96 -64.5 -154.5t-154.5 -58.5q-71 0 -153 53q-5 3 -18 12.5t-18.5 13l-16.5 10.5t-18 10t-17 6.5t-19.5 5t-19.5 1.5q-39 0 -65 -26t-30 -76z" />
    <glyph glyph-name="uni0304" unicode="&#x304;" 
d="M102 1210v144h547v-144h-547z" />
    <glyph glyph-name="uni0306" unicode="&#x306;" 
d="M365 1141q-114 0 -188.5 73.5t-74.5 186.5h140q0 -57 34.5 -94t88.5 -37q55 0 91 37t36 94h139q0 -113 -75.5 -186.5t-190.5 -73.5z" />
    <glyph glyph-name="uni0307" unicode="&#x307;" 
d="M223 1227q-52 0 -86.5 35t-34.5 86q0 53 34.5 87.5t86.5 34.5q54 0 89.5 -34.5t35.5 -87.5q0 -51 -35.5 -86t-89.5 -35z" />
    <glyph glyph-name="uni0308" unicode="&#x308;" 
d="M217 1223q-50 0 -82.5 32.5t-32.5 81.5q0 50 33 83.5t82 33.5q51 0 85 -33.5t34 -83.5q0 -49 -34 -81.5t-85 -32.5zM465 1337q0 50 33 83.5t84 33.5t84.5 -33.5t33.5 -83.5q0 -49 -33.5 -81.5t-84.5 -32.5t-84 32t-33 82z" />
    <glyph glyph-name="uni030A" unicode="&#x30a;" 
d="M326 1112q-96 0 -160 60t-64 151q0 89 64.5 149t159.5 60q96 0 159.5 -59.5t63.5 -149.5q0 -91 -63 -151t-160 -60zM217 1323q0 -47 31.5 -76.5t77.5 -29.5q48 0 79 29.5t31 76.5q0 45 -31 74.5t-79 29.5q-46 0 -77.5 -29.5t-31.5 -74.5z" />
    <glyph glyph-name="uni030B" unicode="&#x30b;" 
d="M102 1147l148 303h168l-166 -303h-150zM383 1147l147 303h170l-168 -303h-149z" />
    <glyph glyph-name="uni030C" unicode="&#x30c;" 
d="M340 1147l-238 303h140l170 -182l168 182h139l-238 -303h-141z" />
    <glyph glyph-name="uni0312" unicode="&#x312;" 
d="M356 1450l-59 -303h-195l123 303h131z" />
    <glyph glyph-name="uni0326" unicode="&#x326;" 
d="M102 -389l91 303h200l-164 -303h-127z" />
    <glyph glyph-name="uni0327" unicode="&#x327;" 
d="M469 2l-147 -303h-220l281 360z" />
    <glyph glyph-name="uni0328" unicode="&#x328;" 
d="M334 -389q-103 0 -167.5 56t-64.5 147q0 46 30.5 104.5t72.5 97.5l147 -16q-88 -92 -88 -158q0 -38 23.5 -60t62.5 -22q44 0 64 4l20 -143q-57 -10 -100 -10z" />
    <glyph glyph-name="uni0335" unicode="&#x335;" 
d="M102 1176v131h619v-131h-619z" />
    <glyph glyph-name="uni0336" unicode="&#x336;" 
d="M102 1073v150h1399v-150h-1399z" />
    <glyph glyph-name="uni0394" unicode="&#x394;" horiz-adv-x="1343" 
d="M756 1434l569 -1434h-1307l568 1434h170zM274 166h795l-397 1022z" />
    <glyph glyph-name="uni03A9" unicode="&#x3a9;" horiz-adv-x="1505" 
d="M602 0h-493v168h303q-150 98 -239 258.5t-89 343.5q0 193 86.5 348.5t239.5 243.5t342 88t342 -88t240 -243.5t87 -348.5q0 -183 -89 -343t-238 -259h303v-168h-494v168h2v45q153 84 241.5 233.5t88.5 317.5q0 229 -136 377.5t-347 148.5q-209 0 -345.5 -148.5
t-136.5 -377.5q0 -167 89 -316t241 -235v-45h2v-168z" />
    <glyph glyph-name="uni03BC" unicode="&#x3bc;" horiz-adv-x="1165" 
d="M131 -389v1421h174v-651q0 -106 63.5 -173t170.5 -67q145 0 230 118t85 321v452h174v-1032h-174v195q-51 -97 -139 -154t-197 -57q-119 0 -213 94v-467h-174z" />
    <glyph glyph-name="pi" unicode="&#x3c0;" horiz-adv-x="1263" 
d="M84 881v151h1096v-151h-197v-549q0 -92 38 -142.5t114 -50.5q14 0 26 2l-4 -155l-41 -2q-138 0 -222.5 90.5t-84.5 234.5v572h-356v-881h-172v881h-197z" />
    <glyph glyph-name="uni0E3F" unicode="&#xe3f;" horiz-adv-x="1255" 
d="M510 -205v205h-360v1434h360v204h170v-204q200 -3 314 -100t114 -269q0 -95 -55.5 -171.5t-132.5 -109.5q116 -41 183.5 -131.5t67.5 -234.5q0 -194 -125.5 -306t-345.5 -112h-20v-205h-170zM336 168h334q156 0 235.5 64.5t79.5 189.5q0 127 -79.5 192.5t-235.5 65.5
h-334v-512zM336 844h326q128 0 195 54t67 161t-67 161t-195 54h-326v-430z" />
    <glyph glyph-name="Wgrave" unicode="&#x1e80;" horiz-adv-x="2027" 
d="M473 0l-436 1434h192l342 -1219l347 1219h194l344 -1219l342 1219h193l-435 -1434h-196l-344 1155l-348 -1155h-195zM715 1851h219l147 -303h-127z" />
    <glyph glyph-name="wgrave" unicode="&#x1e81;" horiz-adv-x="1564" 
d="M371 0l-316 1032h178l224 -788l241 788h168l242 -788l221 788h182l-317 -1032h-170l-242 784l-241 -784h-170zM481 1450h219l148 -303h-127z" />
    <glyph glyph-name="Wacute" unicode="&#x1e82;" horiz-adv-x="2027" 
d="M473 0l-436 1434h192l342 -1219l347 1219h194l344 -1219l342 1219h193l-435 -1434h-196l-344 1155l-348 -1155h-195zM932 1548l147 303h219l-239 -303h-127z" />
    <glyph glyph-name="wacute" unicode="&#x1e83;" horiz-adv-x="1564" 
d="M371 0l-316 1032h178l224 -788l241 788h168l242 -788l221 788h182l-317 -1032h-170l-242 784l-241 -784h-170zM698 1147l148 303h219l-240 -303h-127z" />
    <glyph glyph-name="Wdieresis" unicode="&#x1e84;" horiz-adv-x="2027" 
d="M473 0l-436 1434h192l342 -1219l347 1219h194l344 -1219l342 1219h193l-435 -1434h-196l-344 1155l-348 -1155h-195zM717 1739q0 50 32.5 83t81.5 33q51 0 85 -33t34 -83q0 -49 -34 -82t-85 -33q-49 0 -81.5 32.5t-32.5 82.5zM1079 1739q0 50 33 83t84 33t85 -33t34 -83
q0 -49 -34 -82t-85 -33t-84 32.5t-33 82.5z" />
    <glyph glyph-name="wdieresis" unicode="&#x1e85;" horiz-adv-x="1564" 
d="M371 0l-316 1032h178l224 -788l241 788h168l242 -788l221 788h182l-317 -1032h-170l-242 784l-241 -784h-170zM483 1337q0 50 33 83.5t82 33.5q51 0 85 -33.5t34 -83.5q0 -49 -34 -81.5t-85 -32.5q-50 0 -82.5 32.5t-32.5 81.5zM846 1337q0 50 33 83.5t84 33.5
t84.5 -33.5t33.5 -83.5q0 -49 -33.5 -81.5t-84.5 -32.5t-84 32t-33 82z" />
    <glyph glyph-name="uni1E9E" unicode="&#x1e9e;" horiz-adv-x="1249" 
d="M637 1450q180 0 306 -100.5t149 -259.5l-306 -295q170 -14 274.5 -117.5t104.5 -261.5q0 -177 -121 -296.5t-301 -119.5h-268v168h260q107 0 179.5 72t72.5 178q0 113 -71 179.5t-191 66.5h-143l-23 104l344 342q-23 78 -96 126t-170 48q-135 0 -218 -88t-83 -231v-965
h-186v965q0 219 134 352t353 133z" />
    <glyph glyph-name="Ygrave" unicode="&#x1ef2;" horiz-adv-x="1214" 
d="M512 0v600l-504 834h211l387 -656l389 656h211l-506 -834v-600h-188zM305 1851h219l148 -303h-127z" />
    <glyph glyph-name="ygrave" unicode="&#x1ef3;" horiz-adv-x="1026" 
d="M821 1032h178l-540 -1405h-178l149 387l-403 1018h188l303 -790zM211 1450h219l148 -303h-127z" />
    <glyph glyph-name="endash" unicode="&#x2013;" horiz-adv-x="1024" 
d="M49 514v154h926v-154h-926z" />
    <glyph glyph-name="emdash" unicode="&#x2014;" horiz-adv-x="2048" 
d="M49 514v154h1950v-154h-1950z" />
    <glyph glyph-name="quoteleft" unicode="&#x2018;" horiz-adv-x="464" 
d="M412 1450l-111 -406h-223l215 406h119z" />
    <glyph glyph-name="quoteright" unicode="&#x2019;" horiz-adv-x="464" 
d="M53 1044l111 406h223l-215 -406h-119z" />
    <glyph glyph-name="quotesinglbase" unicode="&#x201a;" horiz-adv-x="464" 
d="M53 -193l111 406h223l-215 -406h-119z" />
    <glyph glyph-name="quotedblleft" unicode="&#x201c;" horiz-adv-x="768" 
d="M412 1450l-111 -406h-223l215 406h119zM381 1044l215 406h119l-111 -406h-223z" />
    <glyph glyph-name="quotedblright" unicode="&#x201d;" horiz-adv-x="768" 
d="M354 1044l111 406h223l-215 -406h-119zM53 1044l111 406h223l-215 -406h-119z" />
    <glyph glyph-name="quotedblbase" unicode="&#x201e;" horiz-adv-x="768" 
d="M354 -193l111 406h223l-215 -406h-119zM53 -193l111 406h223l-215 -406h-119z" />
    <glyph glyph-name="dagger" unicode="&#x2020;" horiz-adv-x="724" 
d="M281 424v584h-258v141h258v285h163v-285h256v-141h-256v-584h-163z" />
    <glyph glyph-name="daggerdbl" unicode="&#x2021;" horiz-adv-x="724" 
d="M23 285v141h258v582h-258v141h258v285h163v-285h256v-141h-256v-582h256v-141h-256v-285h-163v285h-258z" />
    <glyph glyph-name="bullet" unicode="&#x2022;" horiz-adv-x="987" 
d="M498 147q-173 0 -293.5 119.5t-120.5 290.5q0 169 120.5 289.5t293.5 120.5q167 0 286 -120.5t119 -289.5q0 -170 -119 -290t-286 -120z" />
    <glyph glyph-name="ellipsis" unicode="&#x2026;" horiz-adv-x="1593" 
d="M266 -16q-55 0 -90 34t-35 88q0 53 35 88t90 35q53 0 89 -35.5t36 -87.5q0 -53 -36 -87.5t-89 -34.5zM672 106q0 53 35 88t90 35q53 0 89 -35.5t36 -87.5q0 -53 -36 -87.5t-89 -34.5q-55 0 -90 34t-35 88zM1204 106q0 53 35 88t90 35q53 0 89 -35.5t36 -87.5
q0 -53 -36 -87.5t-89 -34.5q-55 0 -90 34t-35 88z" />
    <glyph glyph-name="perthousand" unicode="&#x2030;" horiz-adv-x="2189" 
d="M276 0l959 1434h156l-959 -1434h-156zM68 1090q0 155 93.5 257.5t241.5 102.5q147 0 240.5 -102.5t93.5 -257.5t-94 -258t-240 -103q-148 0 -241.5 103t-93.5 258zM215 1090q0 -105 51 -167.5t137 -62.5q85 0 135 62.5t50 167.5q0 104 -50 166.5t-135 62.5
q-86 0 -137 -62.5t-51 -166.5zM934 344q0 155 94 258t242 103q165 0 260 -125q95 125 260 125q146 0 240 -103t94 -258t-93.5 -257.5t-240.5 -102.5q-165 0 -260 125q-95 -125 -260 -125q-148 0 -242 102.5t-94 257.5zM1081 344q0 -104 51.5 -166.5t137.5 -62.5
q85 0 134.5 62t49.5 167t-49.5 167t-134.5 62q-86 0 -137.5 -62.5t-51.5 -166.5zM1604 315q6 -92 56 -146t130 -54q85 0 134.5 62t49.5 167t-49.5 167t-134.5 62q-80 0 -130 -54t-56 -146v-29v-29z" />
    <glyph glyph-name="guilsinglleft" unicode="&#x2039;" horiz-adv-x="659" 
d="M588 147l-527 416v109l527 413v-180l-369 -289l369 -286v-183z" />
    <glyph glyph-name="guilsinglright" unicode="&#x203a;" horiz-adv-x="659" 
d="M72 147v183l368 286l-368 289v180l526 -413v-109z" />
    <glyph glyph-name="fraction" unicode="&#x2044;" horiz-adv-x="499" 
d="M-307 0l958 1434h156l-959 -1434h-155z" />
    <glyph glyph-name="uni20A6" unicode="&#x20a6;" horiz-adv-x="1650" 
d="M61 829v146h205v459h207l291 -459h434v459h182v-459h207v-146h-207v-227h207v-145h-207v-457h-206l-291 457h-434v-457h-183v457h-205v145h205v227h-205zM449 602h339l-143 227h-196v-227zM449 975h102l-102 162v-162zM856 829l145 -227h197v227h-342zM1094 457l104 -164
v164h-104z" />
    <glyph glyph-name="Euro" unicode="&#x20ac;" horiz-adv-x="1613" 
d="M84 477v146h182q-4 62 -4 94q0 53 6 106h-184v146h211q68 233 247 357t404 124q233 0 394 -122.5t204 -330.5l-184 -41q-32 155 -141 241.5t-273 86.5q-160 0 -278.5 -81t-173.5 -234h655l-49 -146h-639q-6 -50 -6 -106q0 -32 4 -94h571l-47 -146h-494q53 -159 173 -242
t284 -83q163 0 269 81.5t143 231.5l186 -39q-55 -205 -212.5 -323.5t-385.5 -118.5q-110 0 -212 31t-189.5 90.5t-153.5 155t-98 216.5h-209z" />
    <glyph glyph-name="uni20B9" unicode="&#x20b9;" horiz-adv-x="1183" 
d="M705 0l-314 571h-354v168h334q115 0 187.5 50t92.5 141h-614v145h614q-20 92 -92.5 142.5t-187.5 50.5h-334v166h1063v-146h-361q89 -86 107 -213h254v-145h-256q-17 -118 -85.5 -205t-174.5 -125l334 -600h-213z" />
    <glyph glyph-name="uni20BF" unicode="&#x20bf;" horiz-adv-x="1255" 
d="M672 -229v229h-150v-231l-168 2v229h-204v1434h204v204h168v-204h148h2v204h170v-227q127 -34 196.5 -123.5t69.5 -222.5q0 -95 -55.5 -171.5t-132.5 -109.5q116 -41 183.5 -131.5t67.5 -234.5q0 -160 -86 -266t-243 -138v-245zM336 168h334q156 0 235.5 64.5t79.5 189.5
q0 127 -79.5 192.5t-235.5 65.5h-334v-512zM336 844h326q128 0 195 54t67 161t-67 161t-195 54h-326v-430z" />
    <glyph glyph-name="uni2116" unicode="&#x2116;" horiz-adv-x="2549" 
d="M150 0v1434h206l723 -1141v1141h183v-1434h-207l-723 1137v-1137h-182zM1413 932q0 232 147 382t377 150q229 0 378 -150t149 -382t-149 -382.5t-378 -150.5q-230 0 -377 150.5t-147 382.5zM1477 16v154h925v-154h-925zM1591 932q0 -167 95.5 -272t250.5 -105t251 105.5
t96 271.5t-96 271.5t-251 105.5t-250.5 -105t-95.5 -272z" />
    <glyph glyph-name="uni2117" unicode="&#x2117;" horiz-adv-x="1636" 
d="M868 662h-166v-326h-118v801h284q116 0 188 -66t72 -172t-72 -171.5t-188 -65.5zM84 717q0 156 55.5 292t152.5 233t233 152.5t292 55.5t292.5 -55.5t233.5 -152.5t153 -233t56 -292t-56 -292t-153 -233t-233.5 -152.5t-292.5 -55.5t-292 55.5t-233 152.5t-152.5 233
t-55.5 292zM201 717q0 -176 79.5 -318.5t221 -223.5t315.5 -81q175 0 316.5 81t222 223.5t80.5 318.5q0 131 -47.5 247t-129 198t-196.5 129.5t-246 47.5q-174 0 -315.5 -81t-221 -223t-79.5 -318zM702 772h162q68 0 107 33.5t39 93.5t-39 93.5t-107 33.5h-162v-254z" />
    <glyph glyph-name="trademark" unicode="&#x2122;" horiz-adv-x="1462" 
d="M231 717v608h-219v109h566v-109h-222v-608h-125zM653 717v717h144l225 -539l227 539h142v-717h-117v485l-203 -485h-96l-203 485v-485h-119z" />
    <glyph glyph-name="uni2126" unicode="&#x2126;" horiz-adv-x="1505" 
d="M602 0h-493v168h303q-150 98 -239 258.5t-89 343.5q0 193 86.5 348.5t239.5 243.5t342 88t342 -88t240 -243.5t87 -348.5q0 -183 -89 -343t-238 -259h303v-168h-494v168h2v45q153 84 241.5 233.5t88.5 317.5q0 229 -136 377.5t-347 148.5q-209 0 -345.5 -148.5
t-136.5 -377.5q0 -167 89 -316t241 -235v-45h2v-168z" />
    <glyph glyph-name="oneeighth" unicode="&#x215b;" horiz-adv-x="1652" 
d="M1303 -8q-127 0 -209 65t-82 172q0 67 40 121t103 74q-50 25 -80.5 69.5t-30.5 94.5q0 89 72.5 149t186.5 60q111 0 181 -60t70 -149q0 -52 -30.5 -96.5t-81.5 -67.5q66 -20 106.5 -74t40.5 -121q0 -107 -81 -172t-205 -65zM57 1206v125q83 25 191 103h106v-789h-131v641
q-96 -63 -166 -80zM223 0l959 1434h155l-958 -1434h-156zM1151 233q0 -58 40.5 -91t108.5 -33t108 33t40 91q0 56 -40.5 89.5t-107.5 33.5t-108 -33.5t-41 -89.5zM1178 580q0 -46 34 -74.5t91 -28.5q53 0 86.5 28.5t33.5 74.5q0 49 -33 77.5t-87 28.5q-57 0 -91 -28.5
t-34 -77.5z" />
    <glyph glyph-name="threeeighths" unicode="&#x215c;" horiz-adv-x="1796" 
d="M340 637q-120 0 -200.5 62.5t-92.5 166.5l131 21q9 -57 54 -92t108 -35q69 0 111.5 38t42.5 101q0 64 -40.5 100.5t-109.5 36.5q-48 0 -86 -24l-59 92l221 209h-350l2 121h516v-121l-205 -185q114 6 184 -57t70 -176q0 -117 -81.5 -187.5t-215.5 -70.5zM313 0l959 1434
h155l-958 -1434h-156zM1155 229q0 67 40 121t103 74q-50 25 -80 69t-30 95q0 89 72 149t186 60q111 0 181.5 -60t70.5 -149q0 -52 -31 -96.5t-82 -67.5q66 -20 107 -74t41 -121q0 -107 -81.5 -172t-205.5 -65q-127 0 -209 65t-82 172zM1294 233q0 -58 41 -91t109 -33
t107.5 33t39.5 91q0 56 -40 89.5t-107 33.5q-68 0 -109 -34t-41 -89zM1321 580q0 -46 34 -74.5t91 -28.5q53 0 87 28.5t34 74.5q0 49 -33 77.5t-88 28.5q-57 0 -91 -28.5t-34 -77.5z" />
    <glyph glyph-name="fiveeighths" unicode="&#x215d;" horiz-adv-x="1796" 
d="M342 637q-118 0 -197 58.5t-96 158.5l129 23q11 -53 54 -85t104 -32q66 0 105.5 40.5t39.5 106.5q0 69 -41.5 109.5t-111.5 40.5q-99 0 -156 -84l-100 22l63 439h430v-123h-329l-31 -201q71 61 155 61q117 0 191 -73t74 -191q0 -123 -77.5 -196.5t-205.5 -73.5zM342 0
l958 1434h156l-958 -1434h-156zM1155 229q0 67 40 121t103 74q-50 25 -80 69t-30 95q0 89 72 149t186 60q111 0 181.5 -60t70.5 -149q0 -52 -31 -96.5t-82 -67.5q66 -20 107 -74t41 -121q0 -107 -81.5 -172t-205.5 -65q-127 0 -209 65t-82 172zM1294 233q0 -58 41 -91
t109 -33t107.5 33t39.5 91q0 56 -40 89.5t-107 33.5q-68 0 -109 -34t-41 -89zM1321 580q0 -46 34 -74.5t91 -28.5q53 0 87 28.5t34 74.5q0 49 -33 77.5t-88 28.5q-57 0 -91 -28.5t-34 -77.5z" />
    <glyph glyph-name="seveneighths" unicode="&#x215e;" horiz-adv-x="1632" 
d="M121 645q108 375 336 666h-418l-2 123h557v-123q-247 -335 -336 -666h-137zM162 0l958 1434h156l-959 -1434h-155zM991 229q0 67 40 121t104 74q-50 25 -80.5 69.5t-30.5 94.5q0 89 72 149t186 60q111 0 181.5 -60t70.5 -149q0 -52 -31 -96.5t-82 -67.5q66 -20 107 -74
t41 -121q0 -107 -81.5 -172t-205.5 -65q-127 0 -209 65t-82 172zM1130 233q0 -58 41 -91t109 -33t107.5 33t39.5 91q0 56 -40 89.5t-107 33.5q-68 0 -109 -34t-41 -89zM1157 580q0 -46 34 -74.5t91 -28.5q53 0 87 28.5t34 74.5q0 49 -33 77.5t-88 28.5q-57 0 -91 -28.5
t-34 -77.5z" />
    <glyph glyph-name="uni2160" unicode="&#x2160;" horiz-adv-x="931" 
d="M150 0v168h223v1100h-223v166h634v-166h-225v-1100h225v-168h-634z" />
    <glyph glyph-name="uni2161" unicode="&#x2161;" horiz-adv-x="1435" 
d="M150 0v168h223v1100h-223v166h1136v-166h-223v-1100h223v-168h-1136zM559 168h318v1100h-318v-1100z" />
    <glyph glyph-name="uni2162" unicode="&#x2162;" horiz-adv-x="1937" 
d="M150 0v168h223v1100h-223v166h1640v-166h-223v-1100h223v-168h-1640zM559 168h318v1100h-318v-1100zM1063 168h317v1100h-317v-1100z" />
    <glyph glyph-name="uni2163" unicode="&#x2163;" horiz-adv-x="2265" 
d="M150 0v168h223v1100h-223v166h1966v-166h-189l-414 -1100h603v-168h-1966zM559 168h637l-414 1100h-223v-1100zM971 1268l383 -1053l383 1053h-766z" />
    <glyph glyph-name="uni2164" unicode="&#x2164;" horiz-adv-x="1853" 
d="M201 0v168h575l-414 1100h-212v166h1556v-166h-199l-413 -1100h561v-168h-1454zM551 1268l383 -1053l383 1053h-766z" />
    <glyph glyph-name="uni2165" unicode="&#x2165;" horiz-adv-x="2265" 
d="M2116 0h-1966v168h624l-414 1100h-210v166h1966v-166h-224v-1100h224v-168zM549 1268l383 -1053l383 1053h-766zM1092 168h614v1100h-201z" />
    <glyph glyph-name="uni2166" unicode="&#x2166;" horiz-adv-x="2768" 
d="M2619 0h-2469v168h624l-414 1100h-210v166h2469v-166h-223v-1100h223v-168zM549 1268l383 -1053l383 1053h-766zM1092 168h614v1100h-201zM1892 168h318v1100h-318v-1100z" />
    <glyph glyph-name="uni2167" unicode="&#x2167;" horiz-adv-x="3270" 
d="M3123 0h-2973v168h624l-414 1100h-210v166h2973v-166h-223v-1100h223v-168zM549 1268l383 -1053l383 1053h-766zM1092 168h614v1100h-201zM1892 168h318v1100h-318v-1100zM2396 168h318v1100h-318v-1100z" />
    <glyph glyph-name="uni2168" unicode="&#x2168;" horiz-adv-x="2238" 
d="M150 0v168h223v1100h-223v166h1939v-166h-201l-372 -551l370 -549h203v-168h-1939zM559 168h379l371 549l-373 551h-377v-1100zM1145 168h532l-266 395zM1145 1268l268 -396l266 396h-534z" />
    <glyph glyph-name="uni2169" unicode="&#x2169;" horiz-adv-x="1652" 
d="M150 0v168h202l371 549l-373 551h-200v166h1353v-166h-200l-373 -551l370 -549h203v-168h-1353zM559 168h533l-267 395zM559 1268l268 -396l267 396h-535z" />
    <glyph glyph-name="uni216A" unicode="&#x216a;" horiz-adv-x="2084" 
d="M150 0v168h202l371 549l-373 551h-200v166h1785v-166h-223v-1100h223v-168h-1785zM559 1268l268 -396l267 396h-535zM561 168h533l-267 395zM932 717l368 -549h226v1100h-223z" />
    <glyph glyph-name="uni216B" unicode="&#x216b;" horiz-adv-x="2672" 
d="M150 0v168h202l371 549l-373 551h-200v166h2373v-166h-225v-1100h225v-168h-2373zM559 1268l268 -396l267 396h-535zM561 168h533l-267 395zM932 717l368 -549h226v1100h-223zM1712 168h399v1100h-399v-1100z" />
    <glyph glyph-name="uni216C" unicode="&#x216c;" horiz-adv-x="1298" 
d="M150 1268v166h634v-166h-225v-1100h545l-4 221l168 2l2 -223v-168h-1120v168h223v1100h-223z" />
    <glyph glyph-name="uni216D" unicode="&#x216d;" horiz-adv-x="1464" 
d="M780 -16q-109 0 -210.5 28.5t-190 88t-154 144.5t-103.5 206.5t-38 265.5t38 265.5t104 206.5t154.5 144.5t189.5 88t210 28.5q289 0 441 -197v179l161 2l2 -437l-184 -41q-34 156 -144.5 242t-277.5 86q-110 0 -201.5 -37.5t-158.5 -108t-104.5 -178.5t-37.5 -243
q0 -268 138.5 -416.5t363.5 -148.5q166 0 273.5 81.5t146.5 231.5l186 -39l2 -426l-167 -2v184q-162 -198 -439 -198z" />
    <glyph glyph-name="uni216E" unicode="&#x216e;" horiz-adv-x="1601" 
d="M150 1268v166h649q151 0 281.5 -48t228 -137t153.5 -226t56 -306t-56 -306t-153.5 -226t-228 -137t-281.5 -48h-649v168h223v1100h-223zM557 168h236q85 0 161.5 19t145 62t118 105.5t78.5 155.5t29 207t-29 207t-78.5 156t-118 106t-145 62.5t-161.5 19.5h-236v-1100z
" />
    <glyph glyph-name="uni216F" unicode="&#x216f;" horiz-adv-x="2162" 
d="M150 1268v166h448l483 -1164l484 1164h448v-166h-223v-1100h223v-168h-407v1081l-447 -1081h-155l-449 1081v-1081h-405v168h223v1100h-223z" />
    <glyph glyph-name="arrowleft" unicode="&#x2190;" horiz-adv-x="1456" 
d="M641 -33l-563 565l565 566l98 -101l-391 -389h1028v-151h-1028l389 -391z" />
    <glyph glyph-name="arrowup" unicode="&#x2191;" horiz-adv-x="1286" 
d="M1208 754l-98 -99l-391 389v-1028h-152v1028l-389 -391l-100 99l565 565z" />
    <glyph glyph-name="arrowright" unicode="&#x2192;" horiz-adv-x="1456" 
d="M815 -33l-98 99l389 391h-1028v151h1028l-391 389l98 101l565 -566z" />
    <glyph glyph-name="arrowdown" unicode="&#x2193;" horiz-adv-x="1286" 
d="M78 561l98 98l391 -389v1028h152v-1028l389 392l100 -99l-565 -565z" />
    <glyph glyph-name="arrowboth" unicode="&#x2194;" horiz-adv-x="2113" 
d="M1473 -33l-99 99l389 391h-1413l391 -391l-100 -99l-563 565l565 566l100 -101l-393 -389h1413l-391 389l98 101l566 -566z" />
    <glyph glyph-name="arrowupdn" unicode="&#x2195;" horiz-adv-x="1286" 
d="M78 217l98 98l391 -389v1413l-391 -391l-98 101l565 563l565 -565l-100 -101l-389 393v-1413l389 391l100 -98l-565 -565z" />
    <glyph glyph-name="uni2196" unicode="&#x2196;" horiz-adv-x="1191" 
d="M141 205v796h801l-2 -139h-551l725 -727l-106 -106l-727 729l-2 -553h-138z" />
    <glyph glyph-name="uni2197" unicode="&#x2197;" horiz-adv-x="1181" 
d="M1040 205h-139l-2 551l-725 -727l-108 106l727 727h-551l-2 139h798z" />
    <glyph glyph-name="uni2198" unicode="&#x2198;" horiz-adv-x="1193" 
d="M254 6v139l551 2l-727 727l108 107l727 -727l-2 553h140v-799z" />
    <glyph glyph-name="uni2199" unicode="&#x2199;" horiz-adv-x="1193" 
d="M938 6l-797 2v799h140l-2 -553l727 727l108 -107l-727 -727l551 -2v-139z" />
    <glyph glyph-name="partialdiff" unicode="&#x2202;" horiz-adv-x="1216" 
d="M428 1450h43q145 0 266.5 -53.5t210 -154t138 -255.5t49.5 -348q0 -297 -146.5 -476t-386.5 -179q-228 0 -374 137t-146 352q0 213 142.5 350.5t363.5 137.5q121 0 227 -63.5t148 -164.5q-5 243 -141.5 397t-348.5 154q-33 0 -63 -6zM270 479q2 -143 94 -235t236 -92
q145 0 237.5 92t92.5 235q0 141 -93 232.5t-237 91.5t-237 -91.5t-93 -232.5z" />
    <glyph glyph-name="uni2206" unicode="&#x2206;" horiz-adv-x="1343" 
d="M756 1434l569 -1434h-1307l568 1434h170zM274 166h795l-397 1022z" />
    <glyph glyph-name="product" unicode="&#x220f;" horiz-adv-x="1325" 
d="M150 0v1434h1028v-1434h-197v1268h-639v-1268h-192z" />
    <glyph glyph-name="summation" unicode="&#x2211;" horiz-adv-x="1122" 
d="M88 0v162l487 555l-487 555v162h936v-166h-709l426 -477v-148l-426 -475h709v-168h-936z" />
    <glyph glyph-name="minus" unicode="&#x2212;" horiz-adv-x="1099" 
d="M70 606v152h960v-152h-960z" />
    <glyph glyph-name="radical" unicode="&#x221a;" horiz-adv-x="1132" 
d="M477 0l-207 635h-213v168h332l178 -576l373 1207h182l-456 -1434h-189z" />
    <glyph glyph-name="infinity" unicode="&#x221e;" horiz-adv-x="1871" 
d="M512 487q94 0 180.5 63.5t153.5 184.5q-67 121 -153.5 184.5t-180.5 63.5q-124 0 -192 -66t-68 -182t68 -182t192 -66zM82 735q0 183 119 297.5t311 114.5q120 0 229 -64.5t195 -187.5q177 252 424 252q192 0 311 -114.5t119 -297.5t-119 -297t-311 -114q-248 0 -424 251
q-86 -123 -195 -187t-229 -64q-192 0 -311 114t-119 297zM1028 735q69 -121 154 -184.5t178 -63.5q124 0 192 66t68 182t-68 182t-192 66q-93 0 -178 -63.5t-154 -184.5z" />
    <glyph glyph-name="integral" unicode="&#x222b;" horiz-adv-x="581" 
d="M66 -389l-41 2l-5 156q8 -2 27 -2q76 0 114 50t38 142v1165q0 144 83.5 235t221.5 91l41 -2l6 -156q-10 2 -29 2q-75 0 -112 -50t-37 -142v-1165q0 -144 -84.5 -235t-222.5 -91z" />
    <glyph glyph-name="approxequal" unicode="&#x2248;" horiz-adv-x="1177" 
d="M764 748q-96 0 -205 71q-4 3 -24 17t-26 17.5t-22.5 14.5t-26 14.5t-24.5 9t-29.5 7.5t-29.5 2q-54 0 -91 -36t-46 -103l-146 22q7 123 85 198t198 75q96 0 207 -72q5 -3 24 -17t25.5 -18t23 -14t26 -14t24 -9.5t28.5 -7.5t29 -2q55 0 92.5 36t46.5 103l146 -22
q-8 -123 -86 -197.5t-199 -74.5zM94 354q7 123 85 198t198 75q96 0 207 -72q5 -3 24 -17t25.5 -18t23 -14t26 -14t24 -9.5t28.5 -7.5t29 -2q55 0 92.5 36t46.5 103l146 -22q-8 -123 -86 -198t-199 -75q-94 0 -205 72q-4 3 -24 17t-26 17.5t-22.5 14.5t-26 14.5t-24.5 9
t-29.5 7.5t-29.5 2q-54 0 -91 -36t-46 -103z" />
    <glyph glyph-name="notequal" unicode="&#x2260;" horiz-adv-x="1099" 
d="M299 98l-131 72l143 240h-241v151h331l148 246h-479v151h569l162 273l131 -72l-119 -201h217v-151h-309l-146 -246h455v-151h-545z" />
    <glyph glyph-name="lessequal" unicode="&#x2264;" horiz-adv-x="1116" 
d="M1038 293l-960 395v174l960 398v-179l-764 -305l764 -305v-178zM78 0v152h960v-152h-960z" />
    <glyph glyph-name="greaterequal" unicode="&#x2265;" horiz-adv-x="1116" 
d="M78 293v178l764 305l-764 305v179l960 -398v-174zM78 0v152h960v-152h-960z" />
    <glyph glyph-name="uni2460" unicode="&#x2460;" horiz-adv-x="1636" 
d="M817 -16q-156 0 -292 55.5t-233 152.5t-152.5 233t-55.5 292t55.5 292t152.5 233t233 152.5t292 55.5t292.5 -55.5t233.5 -152.5t153 -233t56 -292t-56 -292t-153 -233t-233.5 -152.5t-292.5 -55.5zM201 717q0 -176 79.5 -318.5t221 -223.5t315.5 -81q175 0 316.5 81
t222 223.5t80.5 318.5q0 131 -47.5 247t-129 198t-196.5 129.5t-246 47.5q-174 0 -315.5 -81t-221 -223t-79.5 -318zM635 903v125q84 25 190 102h107v-788h-131v641q-96 -63 -166 -80z" />
    <glyph glyph-name="uni2461" unicode="&#x2461;" horiz-adv-x="1636" 
d="M817 -16q-156 0 -292 55.5t-233 152.5t-152.5 233t-55.5 292t55.5 292t152.5 233t233 152.5t292 55.5t292.5 -55.5t233.5 -152.5t153 -233t56 -292t-56 -292t-153 -233t-233.5 -152.5t-292.5 -55.5zM201 717q0 -176 79.5 -318.5t221 -223.5t315.5 -81q175 0 316.5 81
t222 223.5t80.5 318.5q0 131 -47.5 247t-129 198t-196.5 129.5t-246 47.5q-174 0 -315.5 -81t-221 -223t-79.5 -318zM545 342v115l258 219q78 64 113.5 115.5t35.5 103.5q0 56 -34.5 88.5t-94.5 32.5q-70 0 -107.5 -48t-29.5 -128l-133 10q-10 125 67.5 207t202.5 82
q122 0 197.5 -68t75.5 -176q0 -75 -46.5 -146.5t-150.5 -154.5l-160 -129h357v-123h-551z" />
    <glyph glyph-name="uni2462" unicode="&#x2462;" horiz-adv-x="1636" 
d="M817 -16q-156 0 -292 55.5t-233 152.5t-152.5 233t-55.5 292t55.5 292t152.5 233t233 152.5t292 55.5t292.5 -55.5t233.5 -152.5t153 -233t56 -292t-56 -292t-153 -233t-233.5 -152.5t-292.5 -55.5zM201 717q0 -176 79.5 -318.5t221 -223.5t315.5 -81q175 0 316.5 81
t222 223.5t80.5 318.5q0 131 -47.5 247t-129 198t-196.5 129.5t-246 47.5q-174 0 -315.5 -81t-221 -223t-79.5 -318zM520 563l131 21q9 -57 54 -92t108 -35q69 0 111.5 38t42.5 101q0 64 -40.5 100.5t-109.5 36.5q-49 0 -86 -24l-59 92l221 209h-350l2 120h516v-120
l-205 -185q114 6 184 -57t70 -176q0 -117 -81.5 -187.5t-215.5 -70.5q-120 0 -200.5 62.5t-92.5 166.5z" />
    <glyph glyph-name="uni2463" unicode="&#x2463;" horiz-adv-x="1636" 
d="M817 -16q-156 0 -292 55.5t-233 152.5t-152.5 233t-55.5 292t55.5 292t152.5 233t233 152.5t292 55.5t292.5 -55.5t233.5 -152.5t153 -233t56 -292t-56 -292t-153 -233t-233.5 -152.5t-292.5 -55.5zM201 717q0 -176 79.5 -318.5t221 -223.5t315.5 -81q175 0 316.5 81
t222 223.5t80.5 318.5q0 131 -47.5 247t-129 198t-196.5 129.5t-246 47.5q-174 0 -315.5 -81t-221 -223t-79.5 -318zM446 512v123l394 495h153v-495h109v-123h-109v-170h-141v170h-406zM592 635h260v330z" />
    <glyph glyph-name="uni2464" unicode="&#x2464;" horiz-adv-x="1636" 
d="M817 -16q-156 0 -292 55.5t-233 152.5t-152.5 233t-55.5 292t55.5 292t152.5 233t233 152.5t292 55.5t292.5 -55.5t233.5 -152.5t153 -233t56 -292t-56 -292t-153 -233t-233.5 -152.5t-292.5 -55.5zM201 717q0 -176 79.5 -318.5t221 -223.5t315.5 -81q175 0 316.5 81
t222 223.5t80.5 318.5q0 131 -47.5 247t-129 198t-196.5 129.5t-246 47.5q-174 0 -315.5 -81t-221 -223t-79.5 -318zM528 551l129 22q11 -53 54 -84.5t104 -31.5q66 0 106 40.5t40 106.5q0 69 -41.5 109.5t-112.5 40.5q-99 0 -156 -84l-100 22l63 438h430v-122h-329
l-31 -201q71 61 156 61q117 0 190.5 -73t73.5 -191q0 -123 -77.5 -196.5t-205.5 -73.5q-118 0 -197 58.5t-96 158.5z" />
    <glyph glyph-name="uni2465" unicode="&#x2465;" horiz-adv-x="1636" 
d="M817 -16q-156 0 -292 55.5t-233 152.5t-152.5 233t-55.5 292t55.5 292t152.5 233t233 152.5t292 55.5t292.5 -55.5t233.5 -152.5t153 -233t56 -292t-56 -292t-153 -233t-233.5 -152.5t-292.5 -55.5zM201 717q0 -176 79.5 -318.5t221 -223.5t315.5 -81q175 0 316.5 81
t222 223.5t80.5 318.5q0 131 -47.5 247t-129 198t-196.5 129.5t-246 47.5q-174 0 -315.5 -81t-221 -223t-79.5 -318zM502 692q0 215 105.5 332t266.5 117q135 0 224 -80l-66 -94q-60 51 -158 51q-103 0 -168.5 -69t-70.5 -179q25 47 75.5 74.5t110.5 27.5q122 0 199.5 -76
t77.5 -194q0 -117 -82.5 -192.5t-210.5 -75.5q-135 0 -219 99.5t-84 258.5zM651 610q0 -66 43.5 -109.5t110.5 -43.5t110.5 42.5t45.5 110.5q1 67 -43 108.5t-113 41.5q-68 0 -111 -42t-43 -108z" />
    <glyph glyph-name="uni2466" unicode="&#x2466;" horiz-adv-x="1636" 
d="M817 -16q-156 0 -292 55.5t-233 152.5t-152.5 233t-55.5 292t55.5 292t152.5 233t233 152.5t292 55.5t292.5 -55.5t233.5 -152.5t153 -233t56 -292t-56 -292t-153 -233t-233.5 -152.5t-292.5 -55.5zM201 717q0 -176 79.5 -318.5t221 -223.5t315.5 -81q175 0 316.5 81
t222 223.5t80.5 318.5q0 131 -47.5 247t-129 198t-196.5 129.5t-246 47.5q-174 0 -315.5 -81t-221 -223t-79.5 -318zM539 1130h557v-122q-247 -335 -336 -666h-137q109 377 335 666h-417z" />
    <glyph glyph-name="uni2467" unicode="&#x2467;" horiz-adv-x="1636" 
d="M817 -16q-156 0 -292 55.5t-233 152.5t-152.5 233t-55.5 292t55.5 292t152.5 233t233 152.5t292 55.5t292.5 -55.5t233.5 -152.5t153 -233t56 -292t-56 -292t-153 -233t-233.5 -152.5t-292.5 -55.5zM201 717q0 -176 79.5 -318.5t221 -223.5t315.5 -81q175 0 316.5 81
t222 223.5t80.5 318.5q0 131 -47.5 247t-129 198t-196.5 129.5t-246 47.5q-174 0 -315.5 -81t-221 -223t-79.5 -318zM530 571q0 67 40 121t104 74q-50 25 -80.5 69.5t-30.5 94.5q0 89 72 149t184 60t183 -60t71 -149q0 -52 -30.5 -96.5t-81.5 -67.5q66 -20 106.5 -74
t40.5 -121q0 -107 -82 -172t-207 -65t-207 65t-82 172zM670 575q0 -58 40.5 -91t108.5 -33t108 33t40 91q0 56 -40.5 89.5t-107.5 33.5t-108 -33.5t-41 -89.5zM696 922q0 -46 33 -73.5t90 -27.5q54 0 88.5 28t34.5 73q0 49 -33.5 77.5t-89.5 28.5q-58 0 -90.5 -27.5
t-32.5 -78.5z" />
    <glyph glyph-name="uni2468" unicode="&#x2468;" horiz-adv-x="1636" 
d="M817 -16q-156 0 -292 55.5t-233 152.5t-152.5 233t-55.5 292t55.5 292t152.5 233t233 152.5t292 55.5t292.5 -55.5t233.5 -152.5t153 -233t56 -292t-56 -292t-153 -233t-233.5 -152.5t-292.5 -55.5zM201 717q0 -176 79.5 -318.5t221 -223.5t315.5 -81q175 0 316.5 81
t222 223.5t80.5 318.5q0 131 -47.5 247t-129 198t-196.5 129.5t-246 47.5q-174 0 -315.5 -81t-221 -223t-79.5 -318zM526 412l66 94q60 -51 158 -51q103 0 168.5 68.5t70.5 178.5q-25 -47 -75.5 -74.5t-110.5 -27.5q-122 0 -199.5 76t-77.5 194q0 117 83 193t210 76
q135 0 219 -100t84 -259q0 -215 -105.5 -331.5t-266.5 -116.5q-135 0 -224 80zM664 862q-1 -67 42.5 -108t112.5 -41q68 0 111 41.5t43 107.5t-43.5 110t-110.5 44t-110 -43t-45 -111z" />
    <glyph glyph-name="lozenge" unicode="&#x25ca;" horiz-adv-x="1165" 
d="M500 0l-400 717l400 717h166l399 -717l-399 -717h-166zM274 717l308 -553l309 553l-309 553z" />
    <glyph glyph-name="circle" unicode="&#x25cb;" horiz-adv-x="1636" 
d="M817 -16q-156 0 -292 55.5t-233 152.5t-152.5 233t-55.5 292t55.5 292t152.5 233t233 152.5t292 55.5t292.5 -55.5t233.5 -152.5t153 -233t56 -292t-56 -292t-153 -233t-233.5 -152.5t-292.5 -55.5zM201 717q0 -176 79.5 -318.5t221 -223.5t315.5 -81q175 0 316.5 81
t222 223.5t80.5 318.5q0 131 -47.5 247t-129 198t-196.5 129.5t-246 47.5q-174 0 -315.5 -81t-221 -223t-79.5 -318z" />
    <glyph glyph-name="uni25CF" unicode="&#x25cf;" horiz-adv-x="1636" 
d="M821 -16q-157 0 -294 55.5t-234 152.5t-153 233t-56 292t56 292t153 233t234 152.5t294 55.5q155 0 291 -55.5t232.5 -152.5t152 -233t55.5 -292t-55.5 -292t-152 -233t-232.5 -152.5t-291 -55.5z" />
    <glyph glyph-name="uniF8FF" unicode="&#xf8ff;" horiz-adv-x="1601" 
d="M1253 545q114 0 197.5 -84t83.5 -199q0 -114 -83 -196t-198 -82q-117 0 -199.5 82t-82.5 196v174h-342v-174q0 -114 -83 -196t-200 -82q-116 0 -197 81t-81 197q0 117 82 200t196 83h174v342h-174q-114 0 -196 82.5t-82 199.5q0 115 82 198t196 83q115 0 199 -83.5
t84 -197.5v-174h342v174q0 114 83.5 197.5t198.5 83.5t198 -83t83 -198t-83.5 -198.5t-197.5 -83.5h-174v-342h174zM176 262q0 -70 50 -120t120 -50q72 0 123 50t51 120v174h-174q-70 0 -120 -51t-50 -123zM176 1169q0 -72 50 -123t120 -51h174v174q0 71 -51 121.5
t-123 50.5q-70 0 -120 -50.5t-50 -121.5zM629 545h342v342h-342v-342zM1079 262q0 -70 51 -120t123 -50q71 0 121.5 50t50.5 120q0 72 -50.5 123t-121.5 51h-174v-174zM1079 995h174q71 0 121.5 51t50.5 123q0 71 -50.5 121.5t-121.5 50.5q-72 0 -123 -50.5t-51 -121.5v-174
z" />
    <glyph glyph-name="fi" unicode="&#xfb01;" horiz-adv-x="1142" 
d="M242 0v879h-174v153h174v96q0 166 84.5 257.5t220.5 91.5q78 0 139 -17l-8 -155q-53 20 -109 20q-70 0 -112.5 -50t-42.5 -134v-109h590v-1032h-175v879h-415v-879h-172zM795 1348q0 53 34 87.5t86 34.5q54 0 89.5 -34.5t35.5 -87.5q0 -51 -35.5 -86t-89.5 -35
q-52 0 -86 35t-34 86z" />
    <glyph glyph-name="fl" unicode="&#xfb02;" horiz-adv-x="1181" 
d="M242 0v879h-174v153h174v96q0 166 84.5 257.5t220.5 91.5q78 0 139 -17l-8 -155q-53 20 -109 20q-70 0 -112.5 -50t-42.5 -134v-109h452v418h174v-1450h-174v879h-452v-879h-172z" />
    <glyph glyph-name="G.ss03" horiz-adv-x="1531" 
d="M793 -16q-206 0 -368 93t-251.5 260t-89.5 380t89.5 380t251.5 260t368 93q241 0 414 -124.5t216 -328.5l-186 -39q-32 152 -151 239t-293 87q-232 0 -375.5 -150.5t-143.5 -416.5q0 -249 145 -407t374 -158q203 0 327.5 115.5t130.5 310.5h-555v161h752v-67
q0 -313 -178.5 -500.5t-476.5 -187.5z" />
    <glyph glyph-name="Gbreve.ss03" horiz-adv-x="1531" 
d="M793 -16q-206 0 -368 93t-251.5 260t-89.5 380t89.5 380t251.5 260t368 93q241 0 414 -124.5t216 -328.5l-186 -39q-32 152 -151 239t-293 87q-232 0 -375.5 -150.5t-143.5 -416.5q0 -249 145 -407t374 -158q203 0 327.5 115.5t130.5 310.5h-555v161h752v-67
q0 -313 -178.5 -500.5t-476.5 -187.5zM526 1802h140q0 -57 34 -94t88 -37q55 0 91 37t36 94h140q0 -112 -75.5 -186t-191.5 -74q-114 0 -188 73.5t-74 186.5z" />
    <glyph glyph-name="Gcircumflex.ss03" horiz-adv-x="1531" 
d="M793 -16q-206 0 -368 93t-251.5 260t-89.5 380t89.5 380t251.5 260t368 93q241 0 414 -124.5t216 -328.5l-186 -39q-32 152 -151 239t-293 87q-232 0 -375.5 -150.5t-143.5 -416.5q0 -249 145 -407t374 -158q203 0 327.5 115.5t130.5 310.5h-555v161h752v-67
q0 -313 -178.5 -500.5t-476.5 -187.5zM479 1548l238 303h141l238 -303h-140l-168 183l-170 -183h-139z" />
    <glyph glyph-name="uni0122.ss03" horiz-adv-x="1531" 
d="M793 -16q-206 0 -368 93t-251.5 260t-89.5 380t89.5 380t251.5 260t368 93q241 0 414 -124.5t216 -328.5l-186 -39q-32 152 -151 239t-293 87q-232 0 -375.5 -150.5t-143.5 -416.5q0 -249 145 -407t374 -158q203 0 327.5 115.5t130.5 310.5h-555v161h752v-67
q0 -313 -178.5 -500.5t-476.5 -187.5zM582 -389l90 303h200l-163 -303h-127z" />
    <glyph glyph-name="Gdotaccent.ss03" horiz-adv-x="1531" 
d="M793 -16q-206 0 -368 93t-251.5 260t-89.5 380t89.5 380t251.5 260t368 93q241 0 414 -124.5t216 -328.5l-186 -39q-32 152 -151 239t-293 87q-232 0 -375.5 -150.5t-143.5 -416.5q0 -249 145 -407t374 -158q203 0 327.5 115.5t130.5 310.5h-555v161h752v-67
q0 -313 -178.5 -500.5t-476.5 -187.5zM668 1749q0 53 34 88t86 35q54 0 89.5 -35t35.5 -88q0 -51 -35.5 -86t-89.5 -35q-52 0 -86 35t-34 86z" />
    <glyph glyph-name="i.loclTRK" horiz-adv-x="456" 
d="M141 0v1032h174v-1032h-174zM106 1348q0 53 34.5 87.5t86.5 34.5q54 0 89.5 -34.5t35.5 -87.5q0 -51 -35.5 -86t-89.5 -35q-52 0 -86.5 35t-34.5 86z" />
    <glyph glyph-name="r.calt" horiz-adv-x="737" 
d="M666 874q-29 9 -70 9q-127 0 -204 -123.5t-77 -366.5v-393h-174v1032h174v-209q40 99 124.5 162.5t178.5 63.5l58 -5z" />
    <glyph glyph-name="racute.calt" horiz-adv-x="737" 
d="M666 874q-29 9 -70 9q-127 0 -204 -123.5t-77 -366.5v-393h-174v1032h174v-209q40 99 124.5 162.5t178.5 63.5l58 -5zM322 1147l147 303h219l-239 -303h-127z" />
    <glyph glyph-name="rcaron.calt" horiz-adv-x="737" 
d="M666 874q-29 9 -70 9q-127 0 -204 -123.5t-77 -366.5v-393h-174v1032h174v-209q40 99 124.5 162.5t178.5 63.5l58 -5zM98 1450h140l170 -182l167 182h140l-238 -303h-141z" />
    <glyph glyph-name="uni0157.calt" horiz-adv-x="737" 
d="M666 874q-29 9 -70 9q-127 0 -204 -123.5t-77 -366.5v-393h-174v1032h174v-209q40 99 124.5 162.5t178.5 63.5l58 -5zM35 -389l90 303h201l-164 -303h-127z" />
    <glyph glyph-name="germandbls.calt" horiz-adv-x="1249" 
d="M637 1450q180 0 306 -100.5t149 -259.5l-306 -295q170 -14 274.5 -117.5t104.5 -261.5q0 -177 -121 -296.5t-301 -119.5h-268v168h260q107 0 179.5 72t72.5 178q0 113 -71 179.5t-191 66.5h-143l-23 104l344 342q-23 78 -96 126t-170 48q-135 0 -218 -88t-83 -231v-965
h-186v965q0 219 134 352t353 133z" />
    <glyph glyph-name="a.ss01" horiz-adv-x="1230" 
d="M1090 1032v-1032h-175v150q-36 -72 -129.5 -119t-205.5 -47q-157 0 -271 70.5t-170.5 189.5t-56.5 272t56.5 272.5t170.5 190t269 70.5q102 0 194.5 -45.5t142.5 -118.5v147h175zM260 516q0 -170 92 -273.5t244 -103.5t244 103.5t92 273.5t-92 273.5t-244 103.5
t-244 -103.5t-92 -273.5z" />
    <glyph glyph-name="aacute.ss01" horiz-adv-x="1230" 
d="M1090 1032v-1032h-175v150q-36 -72 -129.5 -119t-205.5 -47q-157 0 -271 70.5t-170.5 189.5t-56.5 272t56.5 272.5t170.5 190t269 70.5q102 0 194.5 -45.5t142.5 -118.5v147h175zM260 516q0 -170 92 -273.5t244 -103.5t244 103.5t92 273.5t-92 273.5t-244 103.5
t-244 -103.5t-92 -273.5zM535 1147l147 303h219l-239 -303h-127z" />
    <glyph glyph-name="abreve.ss01" horiz-adv-x="1230" 
d="M1090 1032v-1032h-175v150q-36 -72 -129.5 -119t-205.5 -47q-157 0 -271 70.5t-170.5 189.5t-56.5 272t56.5 272.5t170.5 190t269 70.5q102 0 194.5 -45.5t142.5 -118.5v147h175zM260 516q0 -170 92 -273.5t244 -103.5t244 103.5t92 273.5t-92 273.5t-244 103.5
t-244 -103.5t-92 -273.5zM354 1401h140q0 -57 34 -94t88 -37q55 0 91 37t36 94h140q0 -112 -75.5 -186t-191.5 -74q-114 0 -188 73.5t-74 186.5z" />
    <glyph glyph-name="acircumflex.ss01" horiz-adv-x="1230" 
d="M1090 1032v-1032h-175v150q-36 -72 -129.5 -119t-205.5 -47q-157 0 -271 70.5t-170.5 189.5t-56.5 272t56.5 272.5t170.5 190t269 70.5q102 0 194.5 -45.5t142.5 -118.5v147h175zM260 516q0 -170 92 -273.5t244 -103.5t244 103.5t92 273.5t-92 273.5t-244 103.5
t-244 -103.5t-92 -273.5zM309 1147l238 303h141l238 -303h-140l-168 182l-169 -182h-140z" />
    <glyph glyph-name="adieresis.ss01" horiz-adv-x="1230" 
d="M1090 1032v-1032h-175v150q-36 -72 -129.5 -119t-205.5 -47q-157 0 -271 70.5t-170.5 189.5t-56.5 272t56.5 272.5t170.5 190t269 70.5q102 0 194.5 -45.5t142.5 -118.5v147h175zM260 516q0 -170 92 -273.5t244 -103.5t244 103.5t92 273.5t-92 273.5t-244 103.5
t-244 -103.5t-92 -273.5zM319 1337q0 50 33 83.5t82 33.5q51 0 85 -33.5t34 -83.5q0 -49 -34 -81.5t-85 -32.5q-50 0 -82.5 32.5t-32.5 81.5zM682 1337q0 50 33 83.5t84 33.5t85 -33.5t34 -83.5q0 -49 -34 -81.5t-85 -32.5t-84 32t-33 82z" />
    <glyph glyph-name="agrave.ss01" horiz-adv-x="1230" 
d="M1090 1032v-1032h-175v150q-36 -72 -129.5 -119t-205.5 -47q-157 0 -271 70.5t-170.5 189.5t-56.5 272t56.5 272.5t170.5 190t269 70.5q102 0 194.5 -45.5t142.5 -118.5v147h175zM260 516q0 -170 92 -273.5t244 -103.5t244 103.5t92 273.5t-92 273.5t-244 103.5
t-244 -103.5t-92 -273.5zM317 1450h220l147 -303h-127z" />
    <glyph glyph-name="amacron.ss01" horiz-adv-x="1230" 
d="M1090 1032v-1032h-175v150q-36 -72 -129.5 -119t-205.5 -47q-157 0 -271 70.5t-170.5 189.5t-56.5 272t56.5 272.5t170.5 190t269 70.5q102 0 194.5 -45.5t142.5 -118.5v147h175zM260 516q0 -170 92 -273.5t244 -103.5t244 103.5t92 273.5t-92 273.5t-244 103.5
t-244 -103.5t-92 -273.5zM344 1210v144h547v-144h-547z" />
    <glyph glyph-name="aogonek.ss01" horiz-adv-x="1230" 
d="M1090 1032v-1032q-89 -93 -89 -158q0 -38 23.5 -60t62.5 -22q44 0 64 4l20 -143q-57 -10 -100 -10q-103 0 -167 56t-64 147q0 42 25 94.5t61 91.5h-11v150q-36 -72 -129.5 -119t-205.5 -47q-157 0 -271 70.5t-170.5 189.5t-56.5 272t56.5 272.5t170.5 190t269 70.5
q102 0 194.5 -45.5t142.5 -118.5v147h175zM260 516q0 -170 92 -273.5t244 -103.5t244 103.5t92 273.5t-92 273.5t-244 103.5t-244 -103.5t-92 -273.5z" />
    <glyph glyph-name="aring.ss01" horiz-adv-x="1230" 
d="M1090 1032v-1032h-175v150q-36 -72 -129.5 -119t-205.5 -47q-157 0 -271 70.5t-170.5 189.5t-56.5 272t56.5 272.5t170.5 190t269 70.5q102 0 194.5 -45.5t142.5 -118.5v147h175zM260 516q0 -170 92 -273.5t244 -103.5t244 103.5t92 273.5t-92 273.5t-244 103.5
t-244 -103.5t-92 -273.5zM395 1323q0 89 64 149t159 60q96 0 160 -60t64 -149q0 -91 -63.5 -151t-160.5 -60q-95 0 -159 60t-64 151zM510 1323q0 -47 31 -76.5t77 -29.5q48 0 79.5 29.5t31.5 76.5q0 45 -31.5 74.5t-79.5 29.5q-46 0 -77 -29.5t-31 -74.5z" />
    <glyph glyph-name="aringacute.ss01" horiz-adv-x="1230" 
d="M1090 1032v-1032h-175v150q-36 -72 -129.5 -119t-205.5 -47q-157 0 -271 70.5t-170.5 189.5t-56.5 272t56.5 272.5t170.5 190t269 70.5q102 0 194.5 -45.5t142.5 -118.5v147h175zM260 516q0 -170 92 -273.5t244 -103.5t244 103.5t92 273.5t-92 273.5t-244 103.5
t-244 -103.5t-92 -273.5zM395 1323q0 72 44 127t114 74l141 288h219l-229 -288q71 -19 114.5 -74t43.5 -127q0 -91 -63.5 -151t-160.5 -60q-95 0 -159 60t-64 151zM510 1323q0 -47 31 -76.5t77 -29.5q48 0 79.5 29.5t31.5 76.5q0 45 -31.5 74.5t-79.5 29.5q-46 0 -77 -29.5
t-31 -74.5z" />
    <glyph glyph-name="atilde.ss01" horiz-adv-x="1230" 
d="M1090 1032v-1032h-175v150q-36 -72 -129.5 -119t-205.5 -47q-157 0 -271 70.5t-170.5 189.5t-56.5 272t56.5 272.5t170.5 190t269 70.5q102 0 194.5 -45.5t142.5 -118.5v147h175zM260 516q0 -170 92 -273.5t244 -103.5t244 103.5t92 273.5t-92 273.5t-244 103.5
t-244 -103.5t-92 -273.5zM266 1219q1 95 62 154t157 59q78 0 154 -56q62 -42 90 -50q18 -5 37 -5q83 0 92 102l127 -22q-5 -96 -64.5 -154.5t-154.5 -58.5q-72 0 -154 53q-5 3 -18 12.5t-18.5 13l-16.5 10.5t-18 10t-17 6.5t-19.5 5t-19.5 1.5q-39 0 -64.5 -26t-29.5 -76z
" />
    <glyph glyph-name="ae.ss01" horiz-adv-x="2011" 
d="M1090 1032v-155q126 172 354 172q149 0 261 -66.5t168 -176t56 -243.5q0 -44 -4 -80h-815q9 -157 100 -251.5t232 -94.5q117 0 195 53.5t100 149.5l164 -39q-37 -151 -155 -234t-296 -83q-229 0 -360 174v-158h-175v150q-36 -72 -129.5 -119t-205.5 -47q-157 0 -271 70.5
t-170.5 189.5t-56.5 272t56.5 272.5t170.5 190t269 70.5q102 0 194.5 -45.5t142.5 -118.5v147h175zM260 516q0 -170 92 -273.5t244 -103.5t244 103.5t92 273.5t-92 273.5t-244 103.5t-244 -103.5t-92 -273.5zM1120 629h627q-14 123 -95.5 198.5t-215.5 75.5
q-121 0 -204.5 -72.5t-111.5 -201.5z" />
    <glyph glyph-name="aeacute.ss01" horiz-adv-x="2011" 
d="M1090 1032v-155q126 172 354 172q149 0 261 -66.5t168 -176t56 -243.5q0 -44 -4 -80h-815q9 -157 100 -251.5t232 -94.5q117 0 195 53.5t100 149.5l164 -39q-37 -151 -155 -234t-296 -83q-229 0 -360 174v-158h-175v150q-36 -72 -129.5 -119t-205.5 -47q-157 0 -271 70.5
t-170.5 189.5t-56.5 272t56.5 272.5t170.5 190t269 70.5q102 0 194.5 -45.5t142.5 -118.5v147h175zM260 516q0 -170 92 -273.5t244 -103.5t244 103.5t92 273.5t-92 273.5t-244 103.5t-244 -103.5t-92 -273.5zM948 1147l148 303h219l-240 -303h-127zM1120 629h627
q-14 123 -95.5 198.5t-215.5 75.5q-121 0 -204.5 -72.5t-111.5 -201.5z" />
    <glyph glyph-name="g.ss02" horiz-adv-x="1075" 
d="M100 276q0 65 38.5 115.5t101.5 79.5q-86 92 -86 229q0 155 111 252t280 97q101 0 188 -41l162 139l100 -115l-137 -117q78 -91 78 -215q0 -158 -110 -253t-281 -95q-107 0 -193 39q-84 -38 -84 -104q0 -44 35.5 -65t91.5 -21h277q162 0 256 -69.5t94 -207.5
q0 -152 -128.5 -232.5t-346.5 -80.5q-222 0 -348.5 77t-126.5 218q0 126 110 211q-82 56 -82 159zM242 -92q0 -71 78 -110.5t227 -39.5q147 0 226 40t79 114q0 79 -53 113t-152 34h-219q-46 0 -104 7q-82 -56 -82 -158zM324 700q0 -95 64 -150.5t157 -55.5t157 55.5
t64 150.5q0 94 -64 150.5t-157 56.5t-157 -56.5t-64 -150.5z" />
    <glyph glyph-name="gbreve.ss02" horiz-adv-x="1075" 
d="M100 276q0 65 38.5 115.5t101.5 79.5q-86 92 -86 229q0 155 111 252t280 97q101 0 188 -41l162 139l100 -115l-137 -117q78 -91 78 -215q0 -158 -110 -253t-281 -95q-107 0 -193 39q-84 -38 -84 -104q0 -44 35.5 -65t91.5 -21h277q162 0 256 -69.5t94 -207.5
q0 -152 -128.5 -232.5t-346.5 -80.5q-222 0 -348.5 77t-126.5 218q0 126 110 211q-82 56 -82 159zM242 -92q0 -71 78 -110.5t227 -39.5q147 0 226 40t79 114q0 79 -53 113t-152 34h-219q-46 0 -104 7q-82 -56 -82 -158zM279 1401h139q0 -57 34.5 -94t88.5 -37q55 0 91 37
t36 94h139q0 -113 -75.5 -186.5t-190.5 -73.5q-114 0 -188 73.5t-74 186.5zM324 700q0 -95 64 -150.5t157 -55.5t157 55.5t64 150.5q0 94 -64 150.5t-157 56.5t-157 -56.5t-64 -150.5z" />
    <glyph glyph-name="gcircumflex.ss02" horiz-adv-x="1075" 
d="M100 276q0 65 38.5 115.5t101.5 79.5q-86 92 -86 229q0 155 111 252t280 97q101 0 188 -41l162 139l100 -115l-137 -117q78 -91 78 -215q0 -158 -110 -253t-281 -95q-107 0 -193 39q-84 -38 -84 -104q0 -44 35.5 -65t91.5 -21h277q162 0 256 -69.5t94 -207.5
q0 -152 -128.5 -232.5t-346.5 -80.5q-222 0 -348.5 77t-126.5 218q0 126 110 211q-82 56 -82 159zM231 1147l238 303h141l238 -303h-139l-168 182l-170 -182h-140zM242 -92q0 -71 78 -110.5t227 -39.5q147 0 226 40t79 114q0 79 -53 113t-152 34h-219q-46 0 -104 7
q-82 -56 -82 -158zM324 700q0 -95 64 -150.5t157 -55.5t157 55.5t64 150.5q0 94 -64 150.5t-157 56.5t-157 -56.5t-64 -150.5z" />
    <glyph glyph-name="uni0123.ss02" horiz-adv-x="1075" 
d="M100 276q0 65 38.5 115.5t101.5 79.5q-86 92 -86 229q0 155 111 252t280 97q101 0 188 -41l162 139l100 -115l-137 -117q78 -91 78 -215q0 -158 -110 -253t-281 -95q-107 0 -193 39q-84 -38 -84 -104q0 -44 35.5 -65t91.5 -21h277q162 0 256 -69.5t94 -207.5
q0 -152 -128.5 -232.5t-346.5 -80.5q-222 0 -348.5 77t-126.5 218q0 126 110 211q-82 56 -82 159zM242 -92q0 -71 78 -110.5t227 -39.5q147 0 226 40t79 114q0 79 -53 113t-152 34h-219q-46 0 -104 7q-82 -56 -82 -158zM324 700q0 -95 64 -150.5t157 -55.5t157 55.5
t64 150.5q0 94 -64 150.5t-157 56.5t-157 -56.5t-64 -150.5zM473 1147l123 303h131l-59 -303h-195z" />
    <glyph glyph-name="gdotaccent.ss02" horiz-adv-x="1075" 
d="M100 276q0 65 38.5 115.5t101.5 79.5q-86 92 -86 229q0 155 111 252t280 97q101 0 188 -41l162 139l100 -115l-137 -117q78 -91 78 -215q0 -158 -110 -253t-281 -95q-107 0 -193 39q-84 -38 -84 -104q0 -44 35.5 -65t91.5 -21h277q162 0 256 -69.5t94 -207.5
q0 -152 -128.5 -232.5t-346.5 -80.5q-222 0 -348.5 77t-126.5 218q0 126 110 211q-82 56 -82 159zM242 -92q0 -71 78 -110.5t227 -39.5q147 0 226 40t79 114q0 79 -53 113t-152 34h-219q-46 0 -104 7q-82 -56 -82 -158zM324 700q0 -95 64 -150.5t157 -55.5t157 55.5
t64 150.5q0 94 -64 150.5t-157 56.5t-157 -56.5t-64 -150.5zM420 1348q0 53 34.5 87.5t86.5 34.5q54 0 89.5 -34.5t35.5 -87.5q0 -51 -35.5 -86t-89.5 -35q-52 0 -86.5 35t-34.5 86z" />
    <glyph glyph-name="f_f.dlig" horiz-adv-x="1353" 
d="M244 0v879h-176v153h176v96q0 166 84.5 257.5t220.5 91.5q78 0 139 -17l-8 -155q-53 20 -109 20q-69 0 -111 -49.5t-42 -132.5v-111h430v96q0 166 84.5 257.5t220.5 91.5q78 0 139 -17l-8 -155q-53 20 -108 20q-69 0 -111.5 -49.5t-42.5 -132.5v-111h264v-153h-264v-879
h-174v879h-430v-879h-174z" />
    <glyph glyph-name="f_f_i.dlig" horiz-adv-x="1660" 
d="M756 0v879h-338v-879h-174v879h-176v153h176v96q0 166 84.5 257.5t220.5 91.5q78 0 139 -17l-8 -155q-53 20 -109 20q-69 0 -111 -49.5t-42 -132.5v-111h338v96q0 166 84.5 257.5t220.5 91.5q78 0 139 -17l-8 -155q-53 20 -109 20q-70 0 -112.5 -50t-42.5 -134v-109h594
v-1032h-174v879h-420v-879h-172zM1313 1348q0 53 34.5 87.5t86.5 34.5q54 0 89.5 -34.5t35.5 -87.5q0 -51 -35.5 -86t-89.5 -35q-52 0 -86.5 35t-34.5 86z" />
    <glyph glyph-name="f_f_l.dlig" horiz-adv-x="1699" 
d="M756 0v879h-338v-879h-174v879h-176v153h176v96q0 166 84.5 257.5t220.5 91.5q78 0 139 -17l-8 -155q-53 20 -109 20q-69 0 -111 -49.5t-42 -132.5v-111h338v96q0 166 84.5 257.5t220.5 91.5q78 0 139 -17l-8 -155q-53 20 -109 20q-70 0 -112.5 -50t-42.5 -134v-109h456
v418h175v-1450h-175v879h-456v-879h-172z" />
    <glyph glyph-name="f_i.dlig" horiz-adv-x="1142" 
d="M242 0v879h-174v153h174v96q0 166 84.5 257.5t220.5 91.5q78 0 139 -17l-8 -155q-53 20 -109 20q-70 0 -112.5 -50t-42.5 -134v-109h590v-1032h-175v879h-415v-879h-172zM795 1348q0 53 34 87.5t86 34.5q54 0 89.5 -34.5t35.5 -87.5q0 -51 -35.5 -86t-89.5 -35
q-52 0 -86 35t-34 86z" />
    <glyph glyph-name="f_l.dlig" horiz-adv-x="1181" 
d="M242 0v879h-174v153h174v96q0 166 84.5 257.5t220.5 91.5q78 0 139 -17l-8 -155q-53 20 -109 20q-70 0 -112.5 -50t-42.5 -134v-109h452v418h174v-1450h-174v879h-452v-879h-172z" />
    <glyph glyph-name="three.ss04" horiz-adv-x="1175" 
d="M592 -16q-229 0 -371.5 119.5t-142.5 314.5l186 12q0 -127 89.5 -206t236.5 -79q142 0 230.5 69.5t88.5 182.5q0 125 -87.5 190.5t-239.5 65.5q-93 0 -113 -2l-4 160q25 -2 86 -2q133 0 218 76t87 182q1 102 -76 163.5t-200 61.5q-125 0 -207.5 -76t-79.5 -188l-180 14
q0 176 131.5 292t335.5 116q203 0 330.5 -105t127.5 -272q0 -121 -80 -216t-206 -118q155 -6 250.5 -101.5t95.5 -244.5q0 -181 -141 -295t-365 -114z" />
    <glyph glyph-name="zero.tf" horiz-adv-x="1247" 
d="M616 -16q-264 0 -406 197.5t-142 535.5t142 535.5t406 197.5q262 0 405.5 -198t143.5 -535t-143.5 -535t-405.5 -198zM258 717q0 -263 92 -414t266 -151q171 0 264 151.5t93 413.5t-93 414.5t-264 152.5q-174 0 -266 -151.5t-92 -415.5z" />
    <glyph glyph-name="one.tf" horiz-adv-x="1247" 
d="M162 168h424v1032q-132 -122 -340 -160v166q222 48 368 228h148v-1266h354v-168h-954v168z" />
    <glyph glyph-name="two.tf" horiz-adv-x="1247" 
d="M129 0l-2 162l539 465q125 108 182 202t57 191q0 120 -74 192t-200 72q-150 0 -229 -96.5t-64 -257.5l-180 12q-17 225 115.5 366.5t357.5 141.5q212 0 339.5 -117.5t127.5 -312.5q0 -131 -76.5 -256t-241.5 -264l-389 -332h707v-168h-969z" />
    <glyph glyph-name="three.tf" horiz-adv-x="1247" 
d="M616 -16q-212 0 -352 112.5t-160 300.5l177 27q15 -124 106.5 -198t228.5 -74q149 0 238.5 82t89.5 217q0 139 -83.5 216.5t-233.5 77.5q-88 0 -158 -45l-80 119l453 449h-697v166h916v-162l-408 -398q213 20 348.5 -98.5t135.5 -329.5q0 -208 -142.5 -335t-378.5 -127z
" />
    <glyph glyph-name="four.tf" horiz-adv-x="1247" 
d="M797 0v350h-756v168l727 916h215v-916h207v-168h-207v-350h-186zM242 518h555v703z" />
    <glyph glyph-name="five.tf" horiz-adv-x="1247" 
d="M647 -16q-207 0 -347.5 107.5t-168.5 287.5l174 31q20 -119 111.5 -188.5t226.5 -69.5q142 0 227.5 88.5t85.5 234.5q0 149 -89 235.5t-244 86.5q-204 0 -318 -172l-135 28l113 781h764v-166h-627l-62 -430q56 53 137 85.5t158 32.5q223 0 359.5 -132t136.5 -349
q0 -223 -136.5 -357t-365.5 -134z" />
    <glyph glyph-name="six.tf" horiz-adv-x="1247" 
d="M643 961q221 0 363.5 -137.5t142.5 -350.5q0 -215 -146 -352t-374 -137q-240 0 -386.5 179t-146.5 476q0 193 49.5 348t138 255.5t210 154t266.5 53.5q225 0 391 -131l-94 -145q-128 110 -299 110q-207 0 -345 -153t-143 -386q49 98 151 157t222 59zM301 479
q0 -143 92.5 -235t237.5 -92q144 0 236 92t94 235q0 141 -93 232.5t-237 91.5t-237 -91.5t-93 -232.5z" />
    <glyph glyph-name="seven.tf" horiz-adv-x="1247" 
d="M123 1434h1046v-166q-594 -765 -639 -1268h-190q23 198 117 424.5t223 430.5t297 413h-680v-262h-174v428z" />
    <glyph glyph-name="eight.tf" horiz-adv-x="1247" 
d="M627 -16q-230 0 -372 117t-142 311q0 126 73.5 224t196.5 136q-96 43 -153.5 124.5t-57.5 176.5q0 168 124.5 272.5t330.5 104.5q200 0 323 -104.5t123 -272.5q0 -95 -58 -177.5t-153 -123.5q123 -38 197 -136t74 -224q0 -193 -140.5 -310.5t-365.5 -117.5zM301 414
q0 -122 88.5 -195.5t235.5 -73.5q146 0 232.5 73.5t86.5 195.5t-86.5 195t-232.5 73q-148 0 -236 -73t-88 -195zM354 1067q1 -103 75.5 -164t197.5 -61q119 0 191 61t73 164q1 102 -71.5 163.5t-192.5 61.5q-126 0 -200 -61t-73 -164z" />
    <glyph glyph-name="nine.tf" horiz-adv-x="1247" 
d="M604 485q-221 0 -363.5 137.5t-142.5 350.5q0 215 146 352t374 137q240 0 386.5 -179t146.5 -476q0 -193 -49.5 -348t-138 -255.5t-210 -154t-266.5 -53.5q-225 0 -391 131l94 145q128 -110 299 -110q207 0 345.5 152.5t142.5 385.5q-49 -98 -151 -156.5t-222 -58.5z
M287 967q0 -141 92.5 -232.5t236.5 -91.5t237 91.5t93 232.5q0 143 -92.5 235t-237.5 92q-144 0 -235.5 -92t-93.5 -235z" />
    <glyph glyph-name="uni2462.ss04" horiz-adv-x="1636" 
d="M817 -16q-156 0 -292 55.5t-233 152.5t-152.5 233t-55.5 292t55.5 292t152.5 233t233 152.5t292 55.5t292.5 -55.5t233.5 -152.5t153 -233t56 -292t-56 -292t-153 -233t-233.5 -152.5t-292.5 -55.5zM201 717q0 -176 79.5 -318.5t221 -223.5t315.5 -81q175 0 316.5 81
t222 223.5t80.5 318.5q0 131 -47.5 247t-129 198t-196.5 129.5t-246 47.5q-174 0 -315.5 -81t-221 -223t-79.5 -318zM537 578l137 6q0 -57 42 -95t107 -38q66 0 108 32t42 84q0 58 -42 90.5t-112 32.5h-80v113q33 -2 66 -2q62 0 99.5 35.5t39.5 89.5q0 47 -35 73.5t-94 26.5
q-56 0 -94.5 -34.5t-38.5 -86.5l-127 8q0 94 74 160t186 66q113 0 186.5 -59t73.5 -150q0 -67 -42 -117.5t-109 -62.5q83 -4 133.5 -57t50.5 -132q0 -100 -79.5 -163.5t-205.5 -63.5q-124 0 -205 67t-81 177z" />
    <glyph glyph-name="three.tf.ss04" horiz-adv-x="1247" 
d="M647 -16q-229 0 -371.5 119.5t-142.5 314.5l186 12q0 -127 89.5 -206t236.5 -79q143 0 231.5 70t88.5 182q0 125 -88 190.5t-240 65.5q-93 0 -113 -2l-4 160q25 -2 86 -2q133 0 218 76t87 182q1 102 -76 163.5t-200 61.5q-125 0 -207.5 -76t-79.5 -188l-180 14
q0 176 131.5 292t335.5 116q203 0 331 -105t128 -272q0 -121 -80.5 -216t-206.5 -118q155 -6 250.5 -101.5t95.5 -244.5q0 -181 -141 -295t-365 -114z" />
    <glyph glyph-name="zero.dnom" horiz-adv-x="737" 
d="M369 -8q-152 0 -237 109.5t-85 293.5t85 293t237 109q149 0 235 -110t86 -292q0 -183 -86 -293t-235 -110zM190 395q0 -132 46 -206t133 -74q85 0 131.5 74t46.5 206q0 131 -46.5 205t-131.5 74q-87 0 -133 -74t-46 -205z" />
    <glyph glyph-name="one.dnom" horiz-adv-x="434" 
d="M223 641q-96 -63 -166 -80v125q86 25 191 102h106v-788h-131v641z" />
    <glyph glyph-name="two.dnom" horiz-adv-x="677" 
d="M63 0l-2 115l258 219q78 64 114 115.5t36 103.5q0 56 -34.5 88.5t-94.5 32.5q-70 0 -107.5 -48t-29.5 -128l-133 10q-10 125 67.5 207t202.5 82q122 0 197 -68t75 -176q0 -75 -46 -146.5t-150 -154.5l-160 -129h356v-123h-549z" />
    <glyph glyph-name="three.dnom" horiz-adv-x="684" 
d="M340 -8q-120 0 -200.5 62.5t-92.5 166.5l131 21q9 -57 54 -92t108 -35q69 0 111.5 38t42.5 101q0 64 -40.5 100.5t-109.5 36.5q-48 0 -86 -24l-59 92l221 209h-350l2 120h516v-120l-205 -185q114 6 184 -57t70 -176q0 -117 -81.5 -187.5t-215.5 -70.5z" />
    <glyph glyph-name="four.dnom" horiz-adv-x="751" 
d="M455 0v170h-406v123l393 495h154v-495h109v-123h-109v-170h-141zM195 293h260v330z" />
    <glyph glyph-name="five.dnom" horiz-adv-x="675" 
d="M342 -8q-118 0 -197 58.5t-96 158.5l129 22q11 -53 54 -84.5t104 -31.5q66 0 105.5 40.5t39.5 106.5q0 69 -41.5 109.5t-111.5 40.5q-99 0 -156 -84l-100 22l63 438h430v-122h-329l-31 -201q71 61 155 61q117 0 191 -73t74 -191q0 -123 -77.5 -196.5t-205.5 -73.5z" />
    <glyph glyph-name="six.dnom" horiz-adv-x="724" 
d="M383 530q121 0 198.5 -75.5t77.5 -194.5q0 -117 -82.5 -192.5t-209.5 -75.5q-135 0 -219.5 100t-84.5 258q0 109 29.5 196t81 141.5t118.5 83t144 28.5q134 0 223 -80l-65 -94q-60 51 -158 51q-103 0 -168.5 -69t-70.5 -179q25 47 75.5 74.5t110.5 27.5zM213 268
q0 -66 43.5 -109.5t110.5 -43.5t110 42.5t45 110.5q1 67 -43 108.5t-112 41.5t-111 -42t-43 -108z" />
    <glyph glyph-name="seven.dnom" horiz-adv-x="618" 
d="M121 0q108 375 336 666h-418v122h555v-122q-247 -335 -336 -666h-137z" />
    <glyph glyph-name="eight.dnom" horiz-adv-x="704" 
d="M354 -8q-127 0 -209 65t-82 172q0 67 40 121t104 74q-50 25 -80.5 69.5t-30.5 94.5q0 89 72 149t186 60q111 0 181.5 -60t70.5 -149q0 -52 -30.5 -96.5t-81.5 -67.5q66 -20 106.5 -74t40.5 -121q0 -107 -81.5 -172t-205.5 -65zM203 233q0 -58 40.5 -91t108.5 -33t108 33
t40 91q0 56 -40.5 89.5t-107.5 33.5t-108 -33.5t-41 -89.5zM229 580q0 -46 34 -74.5t91 -28.5q53 0 87 28.5t34 74.5q0 49 -33 77.5t-88 28.5q-57 0 -91 -28.5t-34 -77.5z" />
    <glyph glyph-name="nine.dnom" horiz-adv-x="724" 
d="M342 258q-121 0 -198.5 75.5t-77.5 194.5q0 117 82.5 193t209.5 76q135 0 219.5 -100t84.5 -259q0 -109 -29.5 -195.5t-81 -141t-118.5 -83t-144 -28.5q-134 0 -223 80l65 94q60 -51 158 -51q103 0 168.5 68.5t70.5 178.5q-25 -47 -75.5 -74.5t-110.5 -27.5zM203 520
q-1 -67 42.5 -108t112.5 -41q68 0 111 41.5t43 107.5t-43.5 110t-110.5 44t-110 -43t-45 -111z" />
    <glyph glyph-name="zero.numr" horiz-adv-x="737" 
d="M369 637q-152 0 -237 109.5t-85 293.5t85 293t237 109q149 0 235 -110t86 -292q0 -183 -86 -293t-235 -110zM190 1040q0 -132 46 -206t133 -74q85 0 131.5 74t46.5 206q0 131 -46.5 205t-131.5 74q-87 0 -133 -74t-46 -205z" />
    <glyph glyph-name="one.numr" horiz-adv-x="434" 
d="M223 1286q-96 -63 -166 -80v125q83 25 191 103h106v-789h-131v641z" />
    <glyph glyph-name="two.numr" horiz-adv-x="677" 
d="M61 645v115l258 219q78 64 114 115.5t36 103.5q0 56 -34.5 88.5t-94.5 32.5q-70 0 -107.5 -48t-29.5 -128l-133 10q-10 125 67.5 207t202.5 82q122 0 197 -68t75 -176q0 -75 -46 -146.5t-150 -154.5l-160 -129h356v-123h-551z" />
    <glyph glyph-name="three.numr" horiz-adv-x="684" 
d="M340 637q-120 0 -200.5 62.5t-92.5 166.5l131 21q9 -57 54 -92t108 -35q69 0 111.5 38t42.5 101q0 64 -40.5 100.5t-109.5 36.5q-48 0 -86 -24l-59 92l221 209h-350l2 121h516v-121l-205 -185q114 6 184 -57t70 -176q0 -117 -81.5 -187.5t-215.5 -70.5z" />
    <glyph glyph-name="four.numr" horiz-adv-x="751" 
d="M455 645v170h-406v123l393 496h154v-496h109v-123h-109v-170h-141zM195 938h260v330z" />
    <glyph glyph-name="five.numr" horiz-adv-x="675" 
d="M342 637q-118 0 -197 58.5t-96 158.5l129 23q11 -53 54 -85t104 -32q66 0 105.5 40.5t39.5 106.5q0 69 -41.5 109.5t-111.5 40.5q-99 0 -156 -84l-100 22l63 439h430v-123h-329l-31 -201q71 61 155 61q117 0 191 -73t74 -191q0 -123 -77.5 -196.5t-205.5 -73.5z" />
    <glyph glyph-name="six.numr" horiz-adv-x="724" 
d="M383 1176q121 0 198.5 -76t77.5 -195q0 -117 -82.5 -192.5t-209.5 -75.5q-135 0 -219.5 100t-84.5 258q0 109 29.5 196t81 141.5t118.5 83t144 28.5q134 0 223 -80l-65 -94q-60 51 -158 51q-103 0 -168.5 -69t-70.5 -179q25 47 75.5 75t110.5 28zM213 913
q0 -66 43.5 -109.5t110.5 -43.5t110 42.5t45 110.5q1 67 -43 108.5t-112 41.5t-111 -42t-43 -108z" />
    <glyph glyph-name="seven.numr" horiz-adv-x="618" 
d="M121 645q108 375 336 666h-418l-2 123h557v-123q-247 -335 -336 -666h-137z" />
    <glyph glyph-name="eight.numr" horiz-adv-x="704" 
d="M352 637q-125 0 -207 65t-82 172q0 67 40 121t104 74q-50 25 -80.5 69.5t-30.5 94.5q0 89 72 149t184 60t183 -60t71 -149q0 -52 -30.5 -96.5t-81.5 -67.5q66 -20 106.5 -74t40.5 -121q0 -107 -82 -172t-207 -65zM203 879q0 -58 40.5 -91.5t108.5 -33.5t108 33.5t40 91.5
q0 56 -40.5 89t-107.5 33q-68 0 -108.5 -33.5t-40.5 -88.5zM229 1225q0 -46 33 -73.5t90 -27.5q54 0 88.5 28t34.5 73q0 49 -33.5 77.5t-89.5 28.5q-58 0 -90.5 -27.5t-32.5 -78.5z" />
    <glyph glyph-name="nine.numr" horiz-adv-x="724" 
d="M342 903q-121 0 -198.5 76t-77.5 195q0 117 82.5 192.5t209.5 75.5q135 0 219.5 -100t84.5 -259q0 -109 -29.5 -195.5t-81 -141t-118.5 -83t-144 -28.5q-134 0 -223 80l65 94q60 -51 158 -51q103 0 168.5 69t70.5 179q-25 -47 -75.5 -75t-110.5 -28zM203 1165
q-1 -67 42.5 -108t112.5 -41q68 0 111 41.5t43 107.5t-43.5 110t-110.5 44t-110 -43t-45 -111z" />
    <glyph glyph-name="three.dnom.ss04" horiz-adv-x="667" 
d="M334 -8q-124 0 -205.5 67t-81.5 177l137 6q0 -57 42 -95t108 -38t107.5 32t41.5 84q0 58 -41.5 90.5t-111.5 32.5h-80v113q33 -2 65 -2q62 0 100 35.5t40 89.5q0 47 -35 73.5t-94 26.5q-56 0 -94.5 -34.5t-38.5 -86.5l-127 8q0 94 74 160t186 66q113 0 186.5 -59
t73.5 -150q0 -66 -42.5 -117t-109.5 -63q83 -4 133.5 -57t50.5 -132q0 -100 -79 -163.5t-205 -63.5z" />
    <glyph glyph-name="three.numr.ss04" horiz-adv-x="667" 
d="M334 637q-124 0 -205.5 67t-81.5 177l137 6q0 -57 42 -95t108 -38t107.5 32t41.5 84q0 58 -41.5 90.5t-111.5 32.5h-80v113q33 -2 65 -2q62 0 100 35.5t40 89.5q0 47 -35 73.5t-94 26.5q-56 0 -94.5 -34.5t-38.5 -86.5l-127 9q0 94 74 159.5t186 65.5q113 0 186.5 -59
t73.5 -150q0 -66 -42.5 -117t-109.5 -63q83 -4 133.5 -57t50.5 -132q0 -100 -79 -163.5t-205 -63.5z" />
    <glyph glyph-name="zero.subs" horiz-adv-x="737" 
d="M369 -356q-152 0 -237 109.5t-85 293.5t85 293t237 109q149 0 235 -110t86 -292q0 -183 -86 -293t-235 -110zM190 47q0 -132 46 -206t133 -74q85 0 131.5 74t46.5 206q0 131 -46.5 205t-131.5 74q-87 0 -133 -74t-46 -205z" />
    <glyph glyph-name="one.subs" horiz-adv-x="434" 
d="M223 293q-96 -63 -166 -80v125q86 25 191 102h106v-788h-131v641z" />
    <glyph glyph-name="two.subs" horiz-adv-x="677" 
d="M63 -348l-2 115l258 219q78 64 114 115.5t36 103.5q0 56 -34.5 88.5t-94.5 32.5q-70 0 -107.5 -48t-29.5 -128l-133 10q-10 125 67.5 207t202.5 82q122 0 197 -68t75 -176q0 -75 -46 -146.5t-150 -154.5l-160 -129h356v-123h-549z" />
    <glyph glyph-name="three.subs" horiz-adv-x="684" 
d="M340 -356q-120 0 -200.5 62.5t-92.5 166.5l131 21q9 -57 54 -92t108 -35q69 0 111.5 38t42.5 101q0 64 -40.5 100.5t-109.5 36.5q-47 0 -86 -25l-59 93l221 208h-350l2 121h516v-121l-205 -184q114 6 184 -57t70 -176q0 -117 -81.5 -187.5t-215.5 -70.5z" />
    <glyph glyph-name="four.subs" horiz-adv-x="751" 
d="M455 -348v170h-406v123l393 495h154v-495h109v-123h-109v-170h-141zM195 -55h260v329z" />
    <glyph glyph-name="five.subs" horiz-adv-x="675" 
d="M342 -356q-118 0 -197 58.5t-96 158.5l129 22q11 -53 54 -84.5t104 -31.5q66 0 105.5 40.5t39.5 106.5q0 69 -41 109t-112 40q-100 0 -156 -83l-100 22l63 438h430v-123h-329l-31 -200q71 61 155 61q117 0 191 -73t74 -191q0 -123 -77.5 -196.5t-205.5 -73.5z" />
    <glyph glyph-name="six.subs" horiz-adv-x="724" 
d="M383 182q121 0 198.5 -75.5t77.5 -194.5q0 -117 -82.5 -192.5t-209.5 -75.5q-135 0 -219.5 100t-84.5 258q0 109 29.5 196t81 141.5t118.5 83t144 28.5q134 0 223 -80l-65 -95q-61 52 -158 52q-103 0 -168.5 -69t-70.5 -179q25 47 75.5 74.5t110.5 27.5zM213 -80
q0 -66 43.5 -109.5t110.5 -43.5t110 42.5t45 110.5q1 67 -43 108.5t-112 41.5t-111 -42t-43 -108z" />
    <glyph glyph-name="seven.subs" horiz-adv-x="618" 
d="M121 -348q108 373 336 665h-418v123h555v-123q-125 -170 -210.5 -342.5t-125.5 -322.5h-137z" />
    <glyph glyph-name="eight.subs" horiz-adv-x="704" 
d="M354 -356q-127 0 -209 65t-82 172q0 67 40 121t104 74q-50 25 -80.5 69.5t-30.5 94.5q0 89 72 149t186 60q111 0 181.5 -60t70.5 -149q0 -52 -30.5 -96.5t-81.5 -67.5q66 -20 106.5 -74t40.5 -121q0 -107 -81.5 -172t-205.5 -65zM203 -115q0 -58 40.5 -91.5t108.5 -33.5
t108 33.5t40 91.5q0 56 -40.5 89.5t-107.5 33.5t-108 -33.5t-41 -89.5zM229 231q0 -46 34 -74t91 -28q53 0 87 28.5t34 73.5q0 49 -33.5 78t-87.5 29q-57 0 -91 -29t-34 -78z" />
    <glyph glyph-name="nine.subs" horiz-adv-x="724" 
d="M342 -90q-121 0 -198.5 75.5t-77.5 194.5q0 117 82.5 193t209.5 76q135 0 219.5 -100t84.5 -259q0 -109 -29.5 -195.5t-81 -141t-118.5 -83t-144 -28.5q-135 0 -223 79l65 95q61 -52 158 -52q103 0 168.5 69t70.5 179q-25 -47 -75.5 -74.5t-110.5 -27.5zM203 172
q-1 -67 42.5 -108t112.5 -41q68 0 111 41.5t43 107.5t-43.5 110t-110.5 44t-110 -43t-45 -111z" />
    <glyph glyph-name="zero.sups" horiz-adv-x="737" 
d="M369 760q-152 0 -237 109.5t-85 293.5t85 293t237 109q149 0 235 -110t86 -292q0 -183 -86 -293t-235 -110zM190 1163q0 -132 46 -206t133 -74q85 0 131.5 74t46.5 206q0 131 -46.5 205t-131.5 74q-87 0 -133 -74t-46 -205z" />
    <glyph glyph-name="one.sups" horiz-adv-x="434" 
d="M223 1409q-96 -63 -166 -80v125q86 25 191 102h106v-788h-131v641z" />
    <glyph glyph-name="two.sups" horiz-adv-x="677" 
d="M63 768l-2 115l258 219q78 64 114 115.5t36 103.5q0 56 -34.5 88.5t-94.5 32.5q-70 0 -107.5 -48t-29.5 -128l-133 10q-10 125 67.5 207t202.5 82q122 0 197 -68t75 -176q0 -75 -46 -146.5t-150 -154.5l-160 -129h356v-123h-549z" />
    <glyph glyph-name="three.sups" horiz-adv-x="684" 
d="M340 760q-120 0 -200.5 62.5t-92.5 166.5l131 21q9 -57 54 -92t108 -35q69 0 111.5 38t42.5 101q0 64 -40.5 100.5t-109.5 36.5q-48 0 -86 -24l-59 92l221 209h-350l2 120h516v-120l-205 -185q114 6 184 -57t70 -176q0 -117 -81.5 -187.5t-215.5 -70.5z" />
    <glyph glyph-name="four.sups" horiz-adv-x="751" 
d="M455 768v170h-406v123l393 495h154v-495h109v-123h-109v-170h-141zM195 1061h260v330z" />
    <glyph glyph-name="five.sups" horiz-adv-x="675" 
d="M342 760q-118 0 -197 58.5t-96 158.5l129 22q11 -53 54 -84.5t104 -31.5q66 0 105.5 40.5t39.5 106.5q0 69 -41.5 109.5t-111.5 40.5q-99 0 -156 -84l-100 22l63 438h430v-122h-329l-31 -201q71 61 155 61q117 0 191 -73t74 -191q0 -123 -77.5 -196.5t-205.5 -73.5z" />
    <glyph glyph-name="six.sups" horiz-adv-x="724" 
d="M383 1298q121 0 198.5 -75.5t77.5 -194.5t-82 -193.5t-212 -74.5q-134 0 -218 101t-84 265q0 209 106.5 325t266.5 116q134 0 223 -80l-65 -94q-60 51 -158 51q-103 0 -168.5 -69t-70.5 -179q25 47 75.5 74.5t110.5 27.5zM213 1036q0 -66 43.5 -109.5t110.5 -43.5
t110 42.5t45 110.5q1 67 -43 108.5t-112 41.5t-111 -42t-43 -108z" />
    <glyph glyph-name="seven.sups" horiz-adv-x="618" 
d="M121 768q108 375 336 666h-418v122h555v-122q-247 -335 -336 -666h-137z" />
    <glyph glyph-name="eight.sups" horiz-adv-x="704" 
d="M354 760q-127 0 -209 65t-82 172q0 67 40 121t104 74q-50 25 -80.5 69.5t-30.5 94.5q0 89 72 149t186 60q111 0 181.5 -60t70.5 -149q0 -52 -30.5 -96.5t-81.5 -67.5q66 -20 106.5 -74t40.5 -121q0 -107 -81.5 -172t-205.5 -65zM203 1001q0 -58 40.5 -91t108.5 -33
t108 33t40 91q0 56 -40.5 89.5t-107.5 33.5t-108 -33.5t-41 -89.5zM229 1348q0 -46 34 -74.5t91 -28.5q53 0 87 28.5t34 74.5q0 49 -33 77.5t-88 28.5q-57 0 -91 -28.5t-34 -77.5z" />
    <glyph glyph-name="nine.sups" horiz-adv-x="724" 
d="M342 1026q-121 0 -198.5 75.5t-77.5 194.5q0 118 83 193.5t211 75.5q134 0 216.5 -101.5t82.5 -265.5q0 -210 -105 -325t-265 -115q-134 0 -226 80l66 94q66 -51 160 -51q102 0 168.5 69t72.5 178q-26 -46 -77 -74t-111 -28zM207 1288q0 -66 42.5 -107.5t108.5 -41.5
q67 0 110.5 41.5t43.5 107.5q0 67 -44 110.5t-110 43.5t-108.5 -42.5t-42.5 -111.5z" />
    <glyph glyph-name="three.subs.ss04" horiz-adv-x="667" 
d="M334 -356q-124 0 -205.5 66.5t-81.5 176.5l137 7q0 -57 42.5 -95.5t107.5 -38.5q66 0 107.5 32.5t41.5 84.5q0 58 -41.5 90.5t-111.5 32.5h-80v113q33 -2 65 -2q62 0 100 35.5t40 89.5q0 47 -35 73.5t-94 26.5q-56 0 -94.5 -34.5t-38.5 -86.5l-127 8q0 94 74 160t186 66
q113 0 186.5 -59t73.5 -150q0 -67 -42.5 -118t-109.5 -63q83 -4 133.5 -56.5t50.5 -131.5q0 -100 -79 -163.5t-205 -63.5z" />
    <glyph glyph-name="uni00B3.ss04" horiz-adv-x="681" 
d="M334 760q-124 0 -205.5 67t-81.5 177l137 6q0 -57 42 -95t108 -38t107.5 32t41.5 84q0 58 -41.5 90.5t-111.5 32.5h-80v113q33 -2 65 -2q62 0 100 35.5t40 89.5q0 47 -35 73.5t-94 26.5q-56 0 -94.5 -34.5t-38.5 -86.5l-127 8q0 94 74 160t186 66q113 0 186.5 -59
t73.5 -150q0 -66 -42.5 -117t-109.5 -63q83 -4 133.5 -57t50.5 -132q0 -100 -79 -163.5t-205 -63.5z" />
    <glyph glyph-name="three.sups.ss04" horiz-adv-x="681" 
d="M334 760q-124 0 -205.5 67t-81.5 177l137 6q0 -57 42 -95t108 -38t107.5 32t41.5 84q0 58 -41.5 90.5t-111.5 32.5h-80v113q33 -2 65 -2q62 0 100 35.5t40 89.5q0 47 -35 73.5t-94 26.5q-56 0 -94.5 -34.5t-38.5 -86.5l-127 8q0 94 74 160t186 66q113 0 186.5 -59
t73.5 -150q0 -66 -42.5 -117t-109.5 -63q83 -4 133.5 -57t50.5 -132q0 -100 -79 -163.5t-205 -63.5z" />
    <glyph glyph-name="space.tf" horiz-adv-x="1247" 
 />
    <glyph glyph-name="colon.case" horiz-adv-x="530" 
d="M266 987q-55 0 -90 34.5t-35 88.5q0 53 35 88t90 35q53 0 89 -35.5t36 -87.5q0 -53 -36 -88t-89 -35zM141 291q0 53 35 88t90 35q53 0 89 -35.5t36 -87.5q0 -53 -36 -88t-89 -35q-55 0 -90 34.5t-35 88.5z" />
    <glyph glyph-name="bullet.case" horiz-adv-x="987" 
d="M498 291q-173 0 -293.5 119.5t-120.5 289.5q0 169 120.5 289.5t293.5 120.5q167 0 286 -120.5t119 -289.5q0 -170 -118.5 -289.5t-286.5 -119.5z" />
    <glyph glyph-name="period.tf" horiz-adv-x="1247" 
d="M625 -16q-55 0 -90 34t-35 88q0 53 35 88t90 35q53 0 89 -35.5t36 -87.5q0 -53 -36 -87.5t-89 -34.5z" />
    <glyph glyph-name="comma.tf" horiz-adv-x="1247" 
d="M418 -217l119 430h233l-229 -430h-123z" />
    <glyph glyph-name="hyphen.case" horiz-adv-x="722" 
d="M59 670v153h605v-153h-605z" />
    <glyph glyph-name="uni00AD.case" horiz-adv-x="722" 
d="M59 670v153h605v-153h-605z" />
    <glyph glyph-name="endash.case" horiz-adv-x="1024" 
d="M49 670v153h926v-153h-926z" />
    <glyph glyph-name="emdash.case" horiz-adv-x="2048" 
d="M49 670v153h1950v-153h-1950z" />
    <glyph glyph-name="parenleft.case" horiz-adv-x="557" 
d="M393 -301q-156 200 -239.5 450t-83.5 510t83.5 510.5t239.5 448.5l121 -90q-276 -408 -276 -869q0 -457 276 -868z" />
    <glyph glyph-name="parenright.case" horiz-adv-x="557" 
d="M43 -209q276 411 276 868q0 461 -276 869l121 90q156 -198 239.5 -448.5t83.5 -510.5t-83.5 -510t-239.5 -450z" />
    <glyph glyph-name="braceleft.case" horiz-adv-x="655" 
d="M502 -231q-101 0 -164.5 67t-63.5 176v426q0 100 -41.5 143.5t-134.5 45.5v149q93 2 134.5 45t41.5 142v428q0 108 63 174.5t165 66.5h104v-145h-57q-115 0 -115 -117v-448q0 -94 -38.5 -144t-110.5 -76q73 -30 111 -79t38 -144v-448q0 -115 115 -115h57v-147h-104z" />
    <glyph glyph-name="braceright.case" horiz-adv-x="655" 
d="M154 -231h-105v147h57q115 0 115 115v448q0 95 38.5 144t111.5 79q-72 26 -111 76t-39 144v448q0 117 -115 117h-57v145h105q102 0 164.5 -66.5t62.5 -174.5v-428q0 -99 41.5 -142t134.5 -45v-149q-93 -2 -134.5 -45.5t-41.5 -143.5v-426q0 -109 -63 -176t-164 -67z" />
    <glyph glyph-name="bracketleft.case" horiz-adv-x="622" 
d="M150 -248v1872h409v-139h-256v-1594h256v-139h-409z" />
    <glyph glyph-name="bracketright.case" horiz-adv-x="622" 
d="M473 -248h-410v139h256v1594h-256v139h410v-1872z" />
    <glyph glyph-name="quotesinglbase.ss05" horiz-adv-x="407" 
d="M330 102q0 -32 -11 -60.5t-57 -113.5l-65 -121h-99l76 175q-41 9 -68.5 43t-27.5 77q0 53 37.5 90t91.5 37q51 0 87 -37t36 -90z" />
    <glyph glyph-name="quotedblbase.ss05" horiz-adv-x="727" 
d="M330 102q0 -32 -11 -60.5t-57 -113.5l-65 -121h-99l76 175q-41 9 -68.5 43t-27.5 77q0 53 37.5 90t91.5 37q51 0 87 -37t36 -90zM397 102q0 53 37.5 90t91.5 37q51 0 87 -37t36 -90q0 -33 -11 -62t-56 -112l-66 -121h-98l76 175q-41 9 -69 43t-28 77z" />
    <glyph glyph-name="quotedblleft.ss05" horiz-adv-x="727" 
d="M78 1155q0 33 11 62t56 112l66 121h98l-76 -174q41 -9 69 -43.5t28 -77.5q0 -53 -37.5 -90t-91.5 -37q-51 0 -87 37t-36 90zM397 1155q0 32 11 60.5t57 113.5l65 121h99l-76 -174q41 -9 68.5 -43.5t27.5 -77.5q0 -53 -37.5 -90t-91.5 -37q-51 0 -87 37t-36 90z" />
    <glyph glyph-name="quotedblright.ss05" horiz-adv-x="727" 
d="M330 1331q0 -32 -11 -60.5t-57 -113.5l-65 -121h-99l76 174q-41 9 -68.5 43.5t-27.5 77.5q0 53 37.5 90t91.5 37q51 0 87 -37t36 -90zM397 1331q0 53 37.5 90t91.5 37q51 0 87 -37t36 -90q0 -33 -11 -62t-56 -112l-66 -121h-98l76 174q-41 9 -69 43.5t-28 77.5z" />
    <glyph glyph-name="quoteleft.ss05" horiz-adv-x="407" 
d="M78 1151q0 33 11 62t56 112l66 121h98l-76 -174q41 -9 69 -43.5t28 -77.5q0 -53 -37.5 -90t-91.5 -37q-51 0 -87 37t-36 90z" />
    <glyph glyph-name="quoteright.ss05" horiz-adv-x="407" 
d="M330 1331q0 -32 -11 -60.5t-57 -113.5l-65 -121h-99l76 174q-41 9 -68.5 43.5t-27.5 77.5q0 53 37.5 90t91.5 37q51 0 87 -37t36 -90z" />
    <glyph glyph-name="at.case" horiz-adv-x="1865" 
d="M1161 1042h148v-563q0 -57 34.5 -94t81.5 -37q90 0 145.5 97.5t55.5 259.5q0 173 -88 312.5t-243 217.5t-347 78q-150 0 -281.5 -52.5t-225 -144t-147.5 -220t-54 -275.5q0 -314 197.5 -509.5t516.5 -195.5q145 0 271 37.5t274 118.5l62 -146q-167 -82 -309 -117.5
t-300 -35.5q-253 0 -450 106.5t-305.5 299.5t-108.5 442q0 236 111.5 427t308 298.5t440.5 107.5q235 0 425.5 -96.5t298.5 -268t108 -384.5q0 -229 -99 -366.5t-260 -137.5q-78 0 -139 36t-90 99q-39 -68 -117 -107t-180 -39q-185 0 -295.5 117.5t-110.5 315.5
q0 186 113.5 307.5t290.5 124.5q77 1 150 -32.5t118 -88.5v108zM641 623q0 -138 73 -220.5t193 -80.5q121 2 194 83.5t73 217.5t-73.5 218.5t-193.5 82.5t-193 -82.5t-73 -218.5z" />
    <glyph glyph-name="percent.part" horiz-adv-x="802" 
d="M403 729q-148 0 -241.5 103t-93.5 258t93.5 257.5t241.5 102.5q147 0 240.5 -102.5t93.5 -257.5t-94 -258t-240 -103zM215 1090q0 -105 51 -167.5t137 -62.5q85 0 135 62.5t50 167.5q0 104 -50 166.5t-135 62.5q-86 0 -137 -62.5t-51 -166.5z" />
    <glyph glyph-name="uni030C.alt" 
d="M102 1147l66 356h180l-141 -356h-105z" />
    </font>
</defs>
</svg>
